<?xml version="1.0" standalone="no"?>
<!DOCTYPE svg PUBLIC "-//W3C//DTD SVG 1.1//EN" "http://www.w3.org/Graphics/SVG/1.1/DTD/svg11.dtd" >
<svg xmlns="http://www.w3.org/2000/svg" xmlns:xlink="http://www.w3.org/1999/xlink" version="1.1">
<metadata></metadata>
<defs>
<font id="dashiconsregular" horiz-adv-x="2000" >
<font-face units-per-em="2000" ascent="2000" descent="0" />
<missing-glyph horiz-adv-x="500" />
<glyph unicode="&#x25fc;" horiz-adv-x="500" d="M0 0z" />
<glyph unicode="&#xf100;" d="M1448 894l-707 707l150 150q25 28 85 34.5t134 -11t132 -55.5q45 -30 126.5 -97t164.5 -113q43 -24 73 -38t76.5 -30.5t87.5 -23t95.5 -6t112.5 12.5zM1377 823l-707 707l-177 -177q-29 -29 -29 -70.5t29 -70.5l106 -106q29 -29 29 -71t-29 -71q-27 -27 -61.5 -54 t-86 -63t-73.5 -52q-66 -49 -101 -84q-52 -52 -92 -108.5t-64 -113t-20.5 -108.5t39.5 -88t88 -39.5t108.5 20.5t113 63.5t108.5 91.5q34 34 85 102q13 17 51 72t64 88.5t54 60.5q29 29 70.5 29t70.5 -29l106 -106q29 -29 70.5 -29t70.5 29z" />
<glyph unicode="&#xf101;" d="M500 1800h900q82 0 141 -59t59 -141v-700q0 -82 -59 -141t-141 -59h-200l-500 -500v500h-200q-82 0 -141 59t-59 141v700q0 82 59 141t141 59z" />
<glyph unicode="&#xf102;" d="M1600 1150l153 -153l-106 -106l-647 647l-647 -647l-106 106l753 753l400 -400v200h200v-400zM1000 1396l600 -599v-597h-1200v597zM1200 300v500h-400v-500h400z" />
<glyph unicode="&#xf103;" d="M1774 1724q126 -127 126 -305t-126 -305l-153 -152q-82 -82 -195 -110.5t-219 1.5l262 261l76 77l76 76q63 63 63 152t-63 152q-63 64 -152 64t-152 -64l-77 -76l-338 -338q-29 106 -0.5 219t110.5 195l152 153q127 126 305.5 126t304.5 -126zM859 657l534 534 q31 31 31 76t-31 76q-34 32 -78 31t-75 -31l-533 -534q-31 -31 -31 -76t31 -76q34 -32 78 -31t74 31zM783 428l414 415q30 -106 1.5 -219t-110.5 -195l-152 -153q-127 -126 -305 -126t-305 126q-126 126 -126 305t126 305l153 152q82 82 195 110.5t219 -0.5l-414 -415 q-64 -63 -64 -152t64 -153q63 -63 152 -63t152 63z" />
<glyph unicode="&#xf104;" d="M1300 900v700q0 41 -29.5 70.5t-70.5 29.5h-167l-133 200h-400l-133 -200h-167q-41 0 -70.5 -29.5t-29.5 -70.5v-700q0 -41 29.5 -70.5t70.5 -29.5h1000q41 0 70.5 29.5t29.5 70.5zM700 1550q104 0 177 -73t73 -177t-73 -177t-177 -73t-177 73t-73 177t73 177t177 73z M1400 1400h500v-1050q0 -104 -73 -177t-177 -73t-177 73t-73 177t73 177t177 73q23 0 50 -5v505h-300v300zM1000 595v105h200v-350q0 -104 -73 -177t-177 -73t-177 73t-73 177t73 177t177 73q23 0 50 -5z" />
<glyph unicode="&#xf105;" d="M600 500v1300h1000v-1300h-1000zM500 400h800v-200h-1000v1300h200v-1100z" />
<glyph unicode="&#xf106;" d="M1311 1564l-324 -324l-187 187l324 324q26 26 72 16.5t84 -48.5q39 -38 48 -83.5t-17 -71.5zM511 1387l91 112l901 -901l-119 -84q-50 -50 -167.5 -83t-214.5 -33h-388l-124 -124q-44 -44 -106 -44t-106 44q-44 43 -44 105.5t44 106.5l124 124v388q0 96 30.5 218 t78.5 171zM1237 990l324 324q25 26 71 17t84 -48q39 -38 48 -83.5t-17 -71.5l-324 -325z" />
<glyph unicode="&#xf107;" d="M1668 1023q-99 -99 -236 -125t-259 26l-541 -652q-74 -74 -179 -74t-179 74t-74 179t74 178l652 542q-52 122 -26 259t125 236q94 94 224 122t248 -16l-289 -289l282 -282l286 287q41 -117 13 -244.5t-121 -220.5zM381 379q30 -29 72 -29t71 29q30 30 30 72t-30 71 q-29 30 -71 30t-72 -30q-29 -29 -29 -71t29 -72z" />
<glyph unicode="&#xf108;" d="M1800 400v1200q0 41 -29.5 70.5t-70.5 29.5h-1300q-41 0 -70.5 -29.5t-29.5 -70.5v-1200q0 -41 29.5 -70.5t70.5 -29.5h1300q41 0 70.5 29.5t29.5 70.5zM800 900h100q41 0 70.5 -29.5t29.5 -70.5t-29.5 -70.5t-70.5 -29.5h-100v-150q0 -21 -14.5 -35.5t-35.5 -14.5 t-35.5 14.5t-14.5 35.5v150h-100q-41 0 -70.5 29.5t-29.5 70.5t29.5 70.5t70.5 29.5h100v550q0 21 14.5 35.5t35.5 14.5t35.5 -14.5t14.5 -35.5v-550zM1300 1100h-100q-41 0 -70.5 29.5t-29.5 70.5t29.5 70.5t70.5 29.5h100v150q0 21 14.5 35.5t35.5 14.5t35.5 -14.5 t14.5 -35.5v-150h100q41 0 70.5 -29.5t29.5 -70.5t-29.5 -70.5t-70.5 -29.5h-100v-550q0 -21 -14.5 -35.5t-35.5 -14.5t-35.5 14.5t-14.5 35.5v550z" />
<glyph unicode="&#xf109;" d="M1044 1698l182 182l636 -635l-183 -182q-78 52 -175 42.5t-166 -78.5l-75 -75q-68 -69 -77.5 -165.5t42.5 -175.5l-183 -182l-241 241l-280 -279q-54 -54 -203.5 -155t-176.5 -74t74 177.5t154 203.5l279 279l-241 242l183 182q78 -52 175 -42.5t165 78.5l75 75 q69 68 78.5 165t-42.5 176z" />
<glyph unicode="&#xf110;" d="M1000 1075q-46 0 -86.5 19t-67.5 49.5t-49 67t-34.5 73t-21 67t-11.5 49.5l-3 19q-6 55 -3 108.5t24.5 103t53 87t82.5 60t113 22.5q103 0 171 -59t91 -144t9 -178q-1 -7 -3 -19.5t-10.5 -48t-20.5 -68t-33.5 -72.5t-48 -68.5t-66.5 -48t-86 -19.5zM1000 818l272 182 q116 0 221.5 -67t168 -172t62.5 -214v-249q-15 -5 -41.5 -12.5t-109 -27t-164.5 -34.5t-195 -27t-214 -12q-162 0 -343 28.5t-281 56.5l-100 28v249q0 112 58 215t162.5 168t226.5 65z" />
<glyph unicode="&#xf111;" d="M1800 800h-218q-26 -107 -81 -193l154 -154l-210 -210l-154 154q-88 -55 -191 -79v-218h-300v218q-103 24 -191 79l-154 -154l-212 212l154 154q-55 88 -79 191h-218v297h217q23 101 80 194l-154 154l210 210l154 -154q85 54 193 81v218h300v-218q103 -24 191 -79 l154 154l212 -212l-154 -154q57 -93 80 -194h217v-297zM950 650q124 0 212 88t88 212t-88 212t-212 88t-212 -88t-88 -212t88 -212t212 -88z" />
<glyph unicode="&#xf112;" d="M1695 1742q96 -96 130.5 -225t0 -257.5t-130.5 -224.5q-112 -112 -267.5 -138.5t-291.5 37.5l-187 -331l-299 -31l-150 -372h-300l-100 200l795 769q-71 139 -46.5 298.5t139.5 274.5q96 96 225 130.5t257.5 0t224.5 -130.5zM1444 1363q55 0 94 39t39 95q0 55 -39 94 t-94 39t-94 -39t-39 -94t39 -94.5t94 -39.5z" />
<glyph unicode="&#xf113;" d="M1000 1700q154 0 290.5 -63t234.5 -175l-171 -195q-62 82 -155 130t-199 48q-157 0 -277.5 -98t-154.5 -247h232l-350 -400l-350 400h208q24 168 121 305t247.5 216t323.5 79zM1000 296q-155 0 -291 63t-234 175l171 195q62 -82 155 -130t199 -48q157 0 277.5 98 t154.5 247h-232l350 400l350 -400h-208q-18 -126 -79.5 -236.5t-152.5 -190.5t-210.5 -126.5t-249.5 -46.5z" />
<glyph unicode="&#xf115;" d="M1800 600v1000q0 41 -29.5 70.5t-70.5 29.5h-1400q-41 0 -70.5 -29.5t-29.5 -70.5v-1000q0 -41 29.5 -70.5t70.5 -29.5h1400q41 0 70.5 29.5t29.5 70.5zM1000 1400q169 0 323 -79t277 -221q-123 -142 -277 -221t-323 -79t-323 79t-277 221q123 142 277 221t323 79z M1200 1100q0 82 -59 141t-141 59t-141 -59t-59 -141t59 -141t141 -59t141 59t59 141zM1400 300h300v-100h-1400v100h300v100h800v-100z" />
<glyph unicode="&#xf116;" d="M1900 400v1300q0 41 -29.5 70.5t-70.5 29.5h-1500q-41 0 -70.5 -29.5t-29.5 -70.5v-1300q0 -41 29.5 -70.5t70.5 -29.5h1500q41 0 70.5 29.5t29.5 70.5zM400 1600h1300v-400h-1300v400zM500 1500v-200h300v200h-300zM900 1500v-200h300v200h-300zM1300 1500v-200h300v200 h-300zM450 1000q21 0 35.5 -14.5t14.5 -35.5t-14.5 -35.5t-35.5 -14.5t-35.5 14.5t-14.5 35.5t14.5 35.5t35.5 14.5zM600 1000h400v-100h-400v100zM1200 1000h500v-500h-500v500zM450 800q21 0 35.5 -14.5t14.5 -35.5t-14.5 -35.5t-35.5 -14.5t-35.5 14.5t-14.5 35.5 t14.5 35.5t35.5 14.5zM600 800h400v-100h-400v100zM1300 800v-200h300v200h-300zM450 600q21 0 35.5 -14.5t14.5 -35.5t-14.5 -35.5t-35.5 -14.5t-35.5 14.5t-14.5 35.5t14.5 35.5t35.5 14.5zM600 600h400v-100h-400v100z" />
<glyph unicode="&#xf117;" d="M500 1800h1000q82 0 141 -59t59 -141v-800q0 -82 -59 -141t-141 -59h-200l-500 -500v500h-300q-82 0 -141 59t-59 141v800q0 82 59 141t141 59zM1350 950l-250 250l250 250l-100 100l-250 -250l-250 250l-100 -100l250 -250l-250 -250l100 -100l250 250l250 -250z" />
<glyph unicode="&#xf118;" d="M1000 1000l-746 298l46 -1098h-200l48 1141l-148 59l1000 400l1000 -400zM1000 1500q-41 0 -70.5 -14.5t-29.5 -35.5t29.5 -35.5t70.5 -14.5t70.5 14.5t29.5 35.5t-29.5 35.5t-70.5 14.5zM1000 900l557 223q112 -149 136 -330q-52 7 -93 7q-188 0 -347.5 -92.5 t-252.5 -248.5q-93 156 -252.5 248.5t-347.5 92.5q-40 0 -93 -7q24 181 136 330z" />
<glyph unicode="&#xf119;" d="M1689 1880l141 -141q29 -29 29 -70.5t-29 -70.5l-430 -431v-967h-1100v1500h1067l180 180q30 29 71.5 29.5t70.5 -29.5zM1123 1032l537 536l-142 142l-536 -537l-71 -212z" />
<glyph unicode="&#xf120;" d="M2000 1000q0 163 -50.5 315.5t-143 275.5t-215.5 215.5t-275.5 143t-315.5 50.5t-315.5 -50.5t-275.5 -143t-215.5 -215.5t-143 -275.5t-50.5 -315.5t50.5 -315.5t143 -275.5t215.5 -215.5t275.5 -143t315.5 -50.5t315.5 50.5t275.5 143t215.5 215.5t143 275.5 t50.5 315.5zM1000 1899q183 0 349.5 -71t287 -191.5t191.5 -287t71 -349.5t-71 -349.5t-191.5 -287t-287 -191.5t-349.5 -71t-349.5 71t-287 191.5t-191.5 287t-71 349.5t71 349.5t191.5 287t287 191.5t349.5 71zM801 518l-305 821l105 8q20 2 27 27.5t-2.5 49t-30.5 22.5 q-129 -10 -213 -10q-33 0 -52 1q110 166 287 263t383 97q154 0 293.5 -55t247.5 -154q-52 7 -98.5 -30.5t-46.5 -111.5q0 -29 11.5 -61.5t22.5 -52.5t37 -61q5 -8 8 -13q50 -87 50 -221q0 -60 -31.5 -172t-63.5 -194l-32 -82l-271 750q21 1 40 5t27 8l8 3q20 2 27.5 29.5 t-2.5 53.5t-30 25q-130 -11 -214 -11q-35 0 -87.5 3l-87.5 5l-36 3q-20 1 -30 -25.5t-2.5 -54t27.5 -28.5l84 -8l112 -304zM1403 303l261 697q3 7 7 19.5t15 53.5t15.5 82t8 105t-6.5 121q94 -170 94 -381q0 -219 -106.5 -405t-287.5 -292zM268 1323l382 -1048 q-202 99 -324.5 294.5t-122.5 430.5q0 179 65 323zM1013 870l229 -625q-117 -42 -242 -42q-103 0 -206 30z" />
<glyph unicode="&#xf121;" d="M300 1900h1400v-1800h-1400v1800zM1400 1500v100h-800v-100h800zM1400 1200v100h-800v-100h800zM1400 900v100h-800v-100h800zM1200 600v100h-600v-100h600z" />
<glyph unicode="&#xf122;" d="M854 726q0 130 -72 222q-50 63 -136.5 82t-159.5 3q-25 143 78 303.5t264 241.5l-163 228q-98 -47 -188.5 -114t-169.5 -157t-133.5 -192.5t-79.5 -227t-9 -252.5q26 -211 139.5 -337t283.5 -126q151 0 248 88q98 88 98 238zM1797 726q0 130 -72 222q-50 63 -136.5 82 t-159.5 3q-25 143 78 303.5t264 241.5l-163 228q-98 -47 -188.5 -114t-169.5 -157t-133.5 -192.5t-79.5 -227t-9 -252.5q26 -211 139.5 -337t283.5 -126q151 0 248 88q98 88 98 238z" />
<glyph unicode="&#xf123;" d="M100 1900h1800v-1200l-600 -600h-1200v1800zM400 1600v-100h1200v100h-1200zM400 1200v-100h1200v100h-1200zM1000 700v100h-600v-100h600zM1200 300l500 500h-500v-500z" />
<glyph unicode="&#xf125;" d="M1100 1400h-82q-81 0 -149.5 -71t-68.5 -145v-184l-300 -300v300h-200q-82 0 -141 59t-59 141v500q0 82 59 141t141 59h600q82 0 141 -59t59 -141v-300zM1100 1300h600q82 0 141 -59t59 -141v-500q0 -82 -59 -141t-141 -59h-200v-300l-300 300h-100q-82 0 -141 59 t-59 141v500q0 82 59 141t141 59z" />
<glyph unicode="&#xf126;" d="M200 1900h1600q41 0 70.5 -29.5t29.5 -70.5v-1600l-1800 2v1598q0 41 29.5 70.5t70.5 29.5zM600 1800l-200 -300h100l200 300h-100zM1000 1800h-100l-200 -300h100zM1300 1800h-100l-200 -300h100zM1600 1800h-100l-200 -300h100zM1700 400v1000h-1400v-1000h1400z M800 1300l600 -400l-600 -400v800z" />
<glyph unicode="&#xf127;" d="M699 1692l1102 200q40 6 69.5 -25.5t29.5 -74.5v-200v-1042q0 -145 -102.5 -247.5t-247.5 -102.5t-247.5 102.5t-102.5 247.5t102.5 247.5t247.5 102.5q73 0 150 -35v627l-900 -200v-892q-18 -128 -118 -214t-232 -86q-145 0 -247.5 102.5t-102.5 247.5t102.5 247.5 t247.5 102.5q73 0 150 -35v827q0 40 28 66.5t71 33.5z" />
<glyph unicode="&#xf128;" d="M225 1900h1550q52 0 88.5 -36.5t36.5 -88.5v-1550q0 -52 -36.5 -88.5t-88.5 -36.5h-1550q-52 0 -88.5 36.5t-36.5 88.5v1550q0 52 36.5 88.5t88.5 36.5zM1700 300v1400h-1400v-1400h1400zM1000 1400q0 82 -59 141t-141 59t-141 -59t-59 -141t59 -141t141 -59t141 59 t59 141zM1300 900q0 8 0.5 21t3 54t7.5 81t15.5 94t25 100.5t37.5 93.5t52 80.5t70 54.5t89 21v-1000q0 -41 -29.5 -70.5t-70.5 -29.5h-1000q-41 0 -70.5 29.5t-29.5 70.5v700q41 0 79.5 -22t67.5 -57.5t55 -78t43.5 -85t30 -78t18.5 -57.5l6 -22q4 12 12 32.5t36 72t60 91 t84 72t108 32.5t107.5 -20.5t85 -50t59 -59t36.5 -50.5z" />
<glyph unicode="&#xf129;" d="M1500 1600h294q44 0 75 -31t31 -75v-1181q0 -45 -31 -79t-75 -34h-1588q-44 0 -75 34t-31 79v1181q0 44 31 75t75 31h294l300 200h400zM1000 500q166 0 283 117t117 283t-117 283t-283 117t-283 -117t-117 -283t117 -283t283 -117z" />
<glyph unicode="&#xf130;" d="M1000 1900q205 0 362 -33.5t257.5 -91t164.5 -142t90 -177.5t26 -206t-26 -206t-90 -177.5t-164.5 -142t-257.5 -91t-362 -33.5t-362 33.5t-257.5 91t-164.5 142t-90 177.5t-26 206t26 206t90 177.5t164.5 142t257.5 91t362 33.5zM550 1100q62 0 106 44t44 106t-44 106 t-106 44t-106 -44t-44 -106t44 -106t106 -44zM1000 1100q62 0 106 44t44 106t-44 106t-106 44t-106 -44t-44 -106t44 -106t106 -44zM1450 1100q62 0 106 44t44 106t-44 106t-106 44t-106 -44t-44 -106t44 -106t106 -44zM600 550q62 0 106 -44t44 -106t-44 -106t-106 -44 t-106 44t-44 106t44 106t106 44zM300 350q41 0 70.5 -29.5t29.5 -70.5t-29.5 -70.5t-70.5 -29.5t-70.5 29.5t-29.5 70.5t29.5 70.5t70.5 29.5z" />
<glyph unicode="&#xf132;" d="M1700 1300v-300h-500v-500h-300v500h-500v300h500v500h300v-500h500z" />
<glyph unicode="&#xf133;" d="M1700 1300v300h-200v200h-300v-100h-900v-1500h1100v900h100v200h200zM1600 1500v-100h-200v-200h-100v200h-200v100h200v200h100v-200h200z" />
<glyph unicode="&#xf134;" d="M300 1500h1400v200h-1400v-200zM1500 700v600h-1000v-600h1000zM300 300h1400v200h-1400v-200z" />
<glyph unicode="&#xf135;" d="M300 1500h1400v200h-1400v-200zM1200 700v600h-900v-600h900zM1400 1100h300v200h-300v-200zM1400 700h300v200h-300v-200zM300 300h1400v200h-1400v-200z" />
<glyph unicode="&#xf136;" d="M300 1500h1400v200h-1400v-200zM300 1100h300v200h-300v-200zM1700 700v600h-900v-600h900zM300 700h300v200h-300v-200zM300 300h1400v200h-1400v-200z" />
<glyph unicode="&#xf138;" d="M300 1500h1400v200h-1400v-200zM1300 700v600h-1000v-600h1000zM300 300h1400v200h-1400v-200z" />
<glyph unicode="&#xf139;" d="M800 1400l600 -403l-600 -397v800z" />
<glyph unicode="&#xf140;" d="M1500 1200l-403 -600l-397 600h800z" />
<glyph unicode="&#xf141;" d="M1300 600l-600 403l600 397v-800z" />
<glyph unicode="&#xf142;" d="M700 700l403 600l397 -600h-800z" />
<glyph unicode="&#xf143;" d="M700 700l403 600l397 -600h-800z" />
<glyph unicode="&#xf145;" d="M1500 1700h300v-1400h-1600v1400h300v100q0 62 44 106t106 44t106 -44t44 -106v-100h400v100q0 62 44 106t106 44t106 -44t44 -106v-100zM600 1800v-250q0 -21 14.5 -35.5t35.5 -14.5t35.5 14.5t14.5 35.5v250q0 21 -14.5 35.5t-35.5 14.5t-35.5 -14.5t-14.5 -35.5z M1300 1800v-250q0 -21 14.5 -35.5t35.5 -14.5t35.5 14.5t14.5 35.5v250q0 21 -14.5 35.5t-35.5 14.5t-35.5 -14.5t-14.5 -35.5zM1700 400v900h-1400v-900h1400zM700 500v700h-200v-700h200zM1100 500v700h-200v-700h200zM1500 500v700h-200v-700h200z" />
<glyph unicode="&#xf147;" d="M1483 1511l134 -94l-581 -838h-134l-324 454l134 125l257 -240z" />
<glyph unicode="&#xf148;" d="M1000 1784q160 0 305 -62t250 -167t167 -250t62 -305t-62 -305t-167 -250t-250 -167t-305 -62t-305 62t-250 167t-167 250t-62 305q0 213 106 393.5t286.5 285.5t391.5 105zM1200 612v776l-582 -385z" />
<glyph unicode="&#xf153;" d="M1000 1800q163 0 311 -63.5t255 -170.5t170.5 -255t63.5 -311t-63.5 -311t-170.5 -255t-255 -170.5t-311 -63.5t-311 63.5t-255 170.5t-170.5 255t-63.5 311t63.5 311t170.5 255t255 170.5t311 63.5zM1500 700l-300 300l300 300l-200 200l-300 -300l-300 300l-200 -200 l300 -300l-300 -300l200 -200l300 300l300 -300z" />
<glyph unicode="&#xf154;" d="M1000 1900l-300 -600l-600 -75l413 -462l-113 -663l600 300l600 -300l-112 663l412 462l-600 75zM1000 1676l234 -469l465 -58l-318 -356l87 -515l-468 234l-468 -234l87 515l-318 356l465 58z" />
<glyph unicode="&#xf155;" d="M1000 1900l300 -600l600 -75l-412 -462l112 -663l-600 300l-600 -300l113 663l-413 462l600 75z" />
<glyph unicode="&#xf156;" d="M1100 1300h-1000l500 -700zM900 600h1000l-500 700z" />
<glyph unicode="&#xf157;" d="M1476 1900q134 0 229 -95.5t95 -229.5t-95 -229t-229 -95q-33 0 -70 8l-106 -106v-1053h-1100v1500h954q9 145 99 222.5t223 77.5zM1476 1351q93 0 158.5 66t65.5 158q0 93 -65.5 159t-158.5 66t-158.5 -66t-65.5 -159q0 -54 27 -103l-322 -322q-35 -35 -101.5 -133 t-48.5 -116q3 -4 10 -4q32 0 120.5 61.5t118.5 91.5l324 324q48 -23 96 -23z" />
<glyph unicode="&#xf158;" d="M1212 1000l353 -353l-212 -212l-353 353l-354 -354l-212 212l354 354l-354 354l212 212l354 -354l354 353l212 -212z" />
<glyph unicode="&#xf159;" d="M1000 1800q163 0 311 -63.5t255 -170.5t170.5 -255t63.5 -311t-63.5 -311t-170.5 -255t-255 -170.5t-311 -63.5t-311 63.5t-255 170.5t-170.5 255t-63.5 311t63.5 311t170.5 255t255 170.5t311 63.5zM1000 500q136 0 251 67t182 182t67 251t-67 251t-182 182t-251 67 t-251 -67t-182 -182t-67 -251t67 -251t182 -182t251 -67z" />
<glyph unicode="&#xf160;" d="M1400 1100h100q41 0 70.5 -29.5t29.5 -70.5v-700q0 -41 -29.5 -70.5t-70.5 -29.5h-1000q-41 0 -70.5 29.5t-29.5 70.5v700q0 41 29.5 70.5t70.5 29.5h100v300q0 166 117 283t283 117t283 -117t117 -283v-300zM1200 1100v300q0 82 -59 141t-141 59t-141 -59t-59 -141v-300 h400zM1100 400l-36 215q39 18 62.5 54.5t23.5 80.5q0 62 -44 106t-106 44t-106 -44t-44 -106q0 -44 23.5 -80.5t62.5 -54.5l-36 -215h200z" />
<glyph unicode="&#xf161;" d="M1600 1600h196q43 0 73.5 -30.5t30.5 -73.5v-1292q0 -43 -30.5 -73.5t-73.5 -30.5h-1292q-43 0 -73.5 30.5t-30.5 73.5v196h-196q-43 0 -73.5 30.5t-30.5 73.5v1292q0 43 30.5 73.5t73.5 30.5h1292q43 0 73.5 -30.5t30.5 -73.5v-196zM300 600h1100v1100h-1100v-1100z M800 1450q0 62 -44 106t-106 44t-106 -44t-44 -106t44 -106t106 -44t106 44t44 106zM1000 1000q2 10 6 28t18.5 70t30.5 99.5t43 105t55.5 99t67 70t79.5 28.5v-800h-900v600q56 0 97 -31t60 -75t30 -88t12 -75l1 -31q1 4 2.5 11.5t8 28t15.5 39.5t25.5 42t36 39.5t49 28 t63.5 11.5q47 0 84.5 -20.5t58 -50t34.5 -59t19 -50.5zM1700 300v1100h-100v-896q0 -43 -30.5 -73.5t-73.5 -30.5h-896v-100h1100z" />
<glyph unicode="&#xf163;" d="M200 100h1600q41 0 70.5 29.5t29.5 70.5v1600q0 41 -29.5 70.5t-70.5 29.5h-1600q-41 0 -70.5 -29.5t-29.5 -70.5v-1600q0 -41 29.5 -70.5t70.5 -29.5zM400 1700q41 0 70.5 -29.5t29.5 -70.5t-29.5 -70.5t-70.5 -29.5t-70.5 29.5t-29.5 70.5t29.5 70.5t70.5 29.5z M1700 1700v-200h-1100v200h1100zM400 1300q41 0 70.5 -29.5t29.5 -70.5t-29.5 -70.5t-70.5 -29.5t-70.5 29.5t-29.5 70.5t29.5 70.5t70.5 29.5zM1700 1300v-200h-1100v200h1100zM400 900q41 0 70.5 -29.5t29.5 -70.5t-29.5 -70.5t-70.5 -29.5t-70.5 29.5t-29.5 70.5 t29.5 70.5t70.5 29.5zM1700 900v-200h-1100v200h1100zM400 500q41 0 70.5 -29.5t29.5 -70.5t-29.5 -70.5t-70.5 -29.5t-70.5 29.5t-29.5 70.5t29.5 70.5t70.5 29.5zM1700 500v-200h-1100v200h1100z" />
<glyph unicode="&#xf164;" d="M1900 200v1600q0 41 -29.5 70.5t-70.5 29.5h-1600q-41 0 -70.5 -29.5t-29.5 -70.5v-1600q0 -41 29.5 -70.5t70.5 -29.5h1600q41 0 70.5 29.5t29.5 70.5zM400 1700q41 0 70.5 -29.5t29.5 -70.5t-29.5 -70.5t-70.5 -29.5t-70.5 29.5t-29.5 70.5t29.5 70.5t70.5 29.5z M1700 1700v-600h-1100v600h1100zM400 900q41 0 70.5 -29.5t29.5 -70.5t-29.5 -70.5t-70.5 -29.5t-70.5 29.5t-29.5 70.5t29.5 70.5t70.5 29.5zM1700 900v-600h-1100v600h1100z" />
<glyph unicode="&#xf165;" d="M1900 800v-300h-400v-400h-300v400h-800v800h-400v300h400v400h300v-400h700l300 300l100 -100l-300 -300v-700h400zM1100 1300h-400v-400zM800 800h400v400z" />
<glyph unicode="&#xf166;" d="M700 1500h-195q0 137 71.5 213.5t223.5 76.5v210q-232 0 -368 -139.5t-136 -360.5h-178l262 -339zM2000 1900v-1400h-500v-500h-1400v1000h900v900h1000zM1800 1700h-600v-700h300v-300h300v1000zM1300 800h-1000v-600h1000v600z" />
<glyph unicode="&#xf167;" d="M1595 1500h-195l320 -339l262 339h-178q0 221 -136 360.5t-368 139.5v-210q152 0 223.5 -76.5t71.5 -213.5zM100 1900h1000v-900h900v-1000h-1400v500h-500v1400zM300 1700v-1000h300v300h300v700h-600zM800 800v-600h1000v600h-1000z" />
<glyph unicode="&#xf168;" d="M2000 1100v-200h-300v-800h-1400v800h-300v200h300v800h1400v-800h300zM650 1300h700l-350 400zM1700 1050h-1400v-100h1400v100zM1350 700h-700l350 -400z" />
<glyph unicode="&#xf169;" d="M1900 1700v-1400h-800v-300h-200v300h-800v1400h800v300h200v-300h800zM1050 300v1400h-100v-1400h100zM700 1350l-400 -350l400 -350v700zM1700 1000l-400 350v-700z" />
<glyph unicode="&#xf171;" d="M1723 990q79 -186 79 -390t-79 -390l-278 117q55 132 55 273q0 142 -55 272q-52 125 -150 223q-97 97 -222 150q-132 55 -273 55v-300l-600 450l600 450v-298q204 0 390 -79q182 -77 318 -215q138 -136 215 -318z" />
<glyph unicode="&#xf172;" d="M277 990q77 182 215 318q136 138 318 215q186 79 390 79v298l600 -450l-600 -450v300q-141 0 -273 -55q-124 -53 -222 -150q-98 -98 -150 -223q-55 -130 -55 -272q0 -141 55 -273l-278 -117q-79 186 -79 390t79 390z" />
<glyph unicode="&#xf173;" d="M1400 1400q0 -138 -84.5 -245t-215.5 -141v-614q0 -44 -50 -94t-100 -78l-50 -28v814q-131 34 -215.5 141t-84.5 245q0 166 117 283t283 117t283 -117t117 -283zM800 1500q0 -41 29.5 -70.5t70.5 -29.5t70.5 29.5t29.5 70.5t-29.5 70.5t-70.5 29.5t-70.5 -29.5 t-29.5 -70.5z" />
<glyph unicode="&#xf174;" d="M600 700h900q41 0 70.5 -29.5t29.5 -70.5t-29.5 -70.5t-70.5 -29.5h-1000q-41 0 -70.5 29.5t-29.5 70.5v1000h-200q-41 0 -70.5 29.5t-29.5 70.5t29.5 70.5t70.5 29.5h300q41 0 70.5 -29.5t29.5 -70.5v-200h1300l-400 -700h-900v-100zM550 400q62 0 106 -44t44 -106 t-44 -106t-106 -44t-106 44t-44 106t44 106t106 44zM1450 400q62 0 106 -44t44 -106t-44 -106t-106 -44t-106 44t-44 106t44 106t106 44z" />
<glyph unicode="&#xf175;" d="M200 1800h1600q41 0 70.5 -29.5t29.5 -70.5v-1400q0 -41 -29.5 -70.5t-70.5 -29.5h-1600q-41 0 -70.5 29.5t-29.5 70.5v1400q0 41 29.5 70.5t70.5 29.5zM1700 400v900h-1400v-900h1400zM400 1200v-100h300v100h-300zM800 1200v-300h800v300h-800zM400 800v-100h300v100 h-300zM800 800v-300h800v300h-800z" />
<glyph unicode="&#xf176;" d="M1485 997q133 -14 224 -113t91 -234q0 -145 -102.5 -247.5t-247.5 -102.5h-1000q-145 0 -247.5 102.5t-102.5 247.5q0 133 88 231t218 115q-6 26 -6 54q0 104 73 177t177 73q49 0 95 -19q50 99 145.5 159t209.5 60q166 0 283 -117t117 -283q0 -48 -15 -103z" />
<glyph unicode="&#xf177;" d="M1000 1491q294 0 536 -151t364 -399q-122 -248 -364 -399t-536 -151t-536 151t-364 399q122 248 364 399t536 151zM1235 1181q0 44 -26 78t-66 46q-17 2 -49 4q-49 -4 -83 -40.5t-34 -87.5q0 -53 38 -91t91 -38q54 0 91.5 38t37.5 91zM1000 511q244 0 449.5 121 t310.5 309q-69 123 -189 208.5t-276 126.5q109 -117 109 -276q0 -167 -118.5 -285.5t-285.5 -118.5t-285.5 118.5t-118.5 285.5q0 159 109 276q-156 -41 -276 -126.5t-189 -208.5q105 -188 310.5 -309t449.5 -121z" />
<glyph unicode="&#xf178;" d="M1800 300v1400q0 41 -29.5 70.5t-70.5 29.5h-1400q-41 0 -70.5 -29.5t-29.5 -70.5v-1400q0 -41 29.5 -70.5t70.5 -29.5h1400q41 0 70.5 29.5t29.5 70.5zM1700 300h-1400v1400h1400v-1400zM475 1600h1050q31 0 53 -22t22 -53v-125h-100v-300h100v-200h-100v-300h100v-125 q0 -31 -22 -53t-53 -22h-1050q-31 0 -53 22t-22 53v1050q0 31 22 53t53 22zM1300 1000q0 166 -117 283t-283 117t-283 -117t-117 -283t117 -283t283 -117t283 117t117 283zM900 1300l77 -115q55 -24 89 -74t34 -111q0 -82 -59 -141t-141 -59t-141 59t-59 141q0 61 34 111 t89 74z" />
<glyph unicode="&#xf179;" d="M1214 1582q139 -139 158 -334.5t-86 -354.5q3 -3 15.5 -14t20.5 -17q34 -27 81 -59q62 -43 66 -47q61 -45 94 -78q49 -49 84 -100q36 -50 59 -104q22 -55 18 -100q-3 -48 -36 -81t-81 -36q-49 -3 -99 19q-52 21 -104 59q-51 35 -100 84q-33 33 -77 93q-2 3 -47 66 q-32 46 -56 78q-24 30 -44 50q-154 -83 -334 -57t-310 155q-160 161 -160 389.5t160 388.5q106 106 247.5 143.5t283 0t247.5 -143.5zM1073 946q102 103 102 247.5t-102 247.5q-103 103 -248 103t-247 -103q-103 -103 -103 -247.5t103 -247.5q102 -103 247 -103t248 103z " />
<glyph unicode="&#xf180;" d="M900 1100v600h-600v-600h600zM1700 1100v600h-600v-600h600zM900 300v600h-600v-600h600zM1700 300v600h-600v-600h600z" />
<glyph unicode="&#xf181;" d="M500 600v800h1000v-800h-1000zM200 700v600h200v-600h-200zM600 1300v-600h800v600h-800zM1600 1300h200v-600h-200v600zM1300 1100v100h-600v-100h600zM1300 800v200h-600v-200h600z" />
<glyph unicode="&#xf182;" d="M1200 1600h300q41 0 70.5 -29.5t29.5 -70.5v-100h-1300v100q0 41 29.5 70.5t70.5 29.5h300q17 86 88.5 143t161.5 57t161.5 -57t88.5 -143zM800 1600h300q-16 43 -58.5 71.5t-91.5 28.5t-91.5 -28.5t-58.5 -71.5zM400 1300h1100v-1000q0 -41 -29.5 -70.5t-70.5 -29.5 h-900q-41 0 -70.5 29.5t-29.5 70.5v1000zM700 400v700h-100v-700h100zM1000 400v700h-100v-700h100zM1300 400v700h-100v-700h100z" />
<glyph unicode="&#xf183;" d="M1800 200v1600h-1600v-1600h1600zM1600 1500h-1200v100h1200v-100zM700 1300v-300h300q0 -124 -88 -212t-212 -88t-212 88t-88 212t88 212t212 88zM800 1100v200q82 0 141 -59t59 -141h-200zM1600 1200h-400v100h400v-100zM1600 900h-400v200h400v-200zM1600 700h-400 v100h400v-100zM1600 400h-1200v100h1200v-100z" />
<glyph unicode="&#xf184;" d="M1000 1000v700q143 0 272.5 -55.5t223 -149t149 -223t55.5 -272.5h-700zM900 1600v-700h700q0 -143 -55.5 -272.5t-149 -223t-223 -149t-272.5 -55.5t-272.5 55.5t-223 149t-149 223t-55.5 272.5t55.5 272.5t149 223t223 149t272.5 55.5z" />
<glyph unicode="&#xf185;" d="M1800 200v1600h-400v-1600h400zM1200 200v1100h-400v-1100h400zM600 200v800h-400v-800h400z" />
<glyph unicode="&#xf200;" d="M600 1600v-1300h454q207 0 326 100q120 99 120 277q0 126 -51 201q-52 76 -167 103v9q85 15 136 90t51 191q0 172 -117 250q-115 79 -374 79h-378zM857 1085v289h136q109 0 161 -32q51 -33 51 -107q0 -80 -47 -115t-151 -35h-150zM857 866h160q216 0 216 -161 q0 -91 -51 -134q-50 -43 -157 -43h-168v338z" />
<glyph unicode="&#xf201;" d="M1478 1400h-213l-280 -900h212l-62 -200h-675l62 200h214l280 900h-213l62 200h675z" />
<glyph unicode="&#xf203;" d="M550 1300q-62 0 -106 44t-44 106t44 106t106 44t106 -44t44 -106t-44 -106t-106 -44zM800 1500h900v-100h-900v100zM550 800q-62 0 -106 44t-44 106t44 106t106 44t106 -44t44 -106t-44 -106t-106 -44zM800 1000h900v-100h-900v100zM550 300q-62 0 -106 44t-44 106 t44 106t106 44t106 -44t44 -106t-44 -106t-106 -44zM800 500h900v-100h-900v100z" />
<glyph unicode="&#xf204;" d="M600 1300v400h-69l-129 -103l40 -51l46 37q12 10 30 28l-2 -42v-269h84zM800 1500h900v-100h-900v100zM677 805v70h-172v4l51 48q56 52 70 71q21 26 30 49q10 23 10 51q0 33 -16 56q-14 23 -44 37t-65 14q-29 0 -51 -6q-17 -3 -42 -15q-21 -12 -48 -35l45 -54 q24 19 45 30q21 10 45 10q23 0 35 -11q13 -12 13 -36q0 -15 -6 -30q-7 -16 -19 -33q-11 -13 -58 -62l-99 -100v-58h276zM800 1000h900v-100h-900v100zM671 605q0 46 -37 71q-37 26 -100 26q-78 0 -133 -40l40 -60q27 18 46 23q20 7 41 7q58 0 58 -46q0 -31 -22 -43t-70 -12 h-31v-66h31q51 0 75 -12q23 -12 23 -41q0 -32 -20 -47q-21 -15 -63 -15q-27 0 -57 8q-25 7 -52 20v-74q50 -22 118 -22q80 0 122 33q43 33 43 92q0 40 -26 64q-25 24 -74 30v2q40 9 65 37q23 28 23 65zM800 500h900v-100h-900v100z" />
<glyph unicode="&#xf205;" d="M949 678q0 113 -61 190q-43 53 -117 69.5t-136 2.5q-21 122 66.5 259t225.5 206l-139 195q-106 -51 -199.5 -129t-167.5 -179.5t-110 -231t-19 -265.5q22 -180 119.5 -287.5t242.5 -107.5q128 0 212 75q83 74 83 203zM1754 678q0 113 -61 190q-43 54 -117 70t-136 2 q-21 122 66.5 259t225.5 206l-139 195q-106 -51 -199.5 -129t-167 -179.5t-109.5 -231t-19 -265.5q22 -180 119 -287.5t242 -107.5q128 0 212 75q83 74 83 203z" />
<glyph unicode="&#xf206;" d="M1200 1500v200h-900v-200h900zM1700 1100v200h-1400v-200h1400zM1200 700v200h-900v-200h900zM1700 300v200h-1400v-200h1400z" />
<glyph unicode="&#xf207;" d="M1400 1500v200h-800v-200h800zM1700 1100v200h-1400v-200h1400zM1400 700v200h-800v-200h800zM1700 300v200h-1400v-200h1400z" />
<glyph unicode="&#xf208;" d="M1700 1500v200h-900v-200h900zM1700 1100v200h-1400v-200h1400zM1700 700v200h-900v-200h900zM1700 300v200h-1400v-200h1400z" />
<glyph unicode="&#xf209;" d="M1700 1300v400h-1400v-400h1400zM600 900v200h-300v-200h300zM1200 900v200h-400v-200h400zM1700 900v200h-300v-200h300zM1700 300v400h-1400v-400h1400z" />
<glyph unicode="&#xf210;" d="M1584 1724q36 0 71 -11q26 -8 64 -25l35 81q-78 39 -169 39q-86 0 -152 -37q-65 -37 -99 -108q-34 -68 -34 -163q0 -149 70 -228t202 -79q88 0 160 26v84q-32 -10 -74 -19q-38 -8 -74 -8q-89 0 -134 57q-47 54 -47 166q0 105 48 165q49 60 133 60zM650 1200h104l-224 600 h-106l-224 -600h103l58 166h229zM800 1800v-600h217q101 0 157 46q56 44 56 126q0 60 -30 95q-28 35 -93 47v4q50 9 78 44q28 37 28 88q0 78 -56 114q-54 36 -179 36h-178zM898 1552v166h85q68 0 97 -19q31 -18 31 -61q0 -46 -29 -66q-28 -20 -89 -20h-95zM564 1450h-174 l54 156q23 65 32 110l15 -52q8 -26 17 -51zM898 1473h99q64 0 98 -23q32 -23 32 -69q0 -51 -32 -75q-31 -24 -93 -24h-104v191zM400 700l500 -500l900 800l-100 100l-800 -600l-400 300z" />
<glyph unicode="&#xf211;" d="M600 1700l-125 -125l225 -375l-375 225l-125 -125v400h400zM1400 1700h400v-400l-125 125l-375 -225l225 375zM700 800v400h600v-400h-600zM200 700l125 -125l375 225l-225 -375l125 -125h-400v400zM1400 300l125 125l-225 375l375 -225l125 125v-400h-400z" />
<glyph unicode="&#xf212;" d="M1900 1800v-600h-1800v600h1800zM1800 1300v400h-1600v-400h1600zM500 1600v-200h-200v200h200zM800 1600v-200h-200v200h200zM1100 1600v-200h-200v200h200zM1400 1600v-200h-200v200h200zM1700 1600v-200h-200v200h200zM1900 1100v-900h-1800v900h1800zM1800 300v700 h-1600v-700h1600zM500 900v-200h-200v200h200zM800 900v-200h-200v200h200zM1100 900v-200h-200v200h200zM1700 900v-200h-500v200h500zM1100 600v-200h-800v200h800zM1400 600v-200h-200v200h200zM1700 600v-200h-200v200h200z" />
<glyph unicode="&#xf213;" d="M1400 1500h-200v-571q0 -143 -70 -220.5t-175 -77.5q-106 0 -180.5 78t-74.5 218v573h-200v-587q0 -61 12.5 -120.5t45 -121t82 -108t129 -75.5t179.5 -29t180.5 28.5t130 74t82.5 106.5t46 120.5t13 120.5v591zM1400 200v200h-900v-200h900z" />
<glyph unicode="&#xf214;" d="M200 1700h1600v-200h-1600v200zM200 1300h1600v-200h-1600v200zM200 900h1600v-200h-1600v200zM200 500h1600v-200h-1600v200z" />
<glyph unicode="&#xf215;" d="M1323 500h190l-413 1100h-200l-400 -1100h188l107 300h418zM1170 954h-319l149 486z" />
<glyph unicode="&#xf216;" d="M1238 1800l262 -300v-100h-1000v100l264 300h474zM1000 1500q41 0 70.5 29.5t29.5 70.5t-29.5 70.5t-70.5 29.5t-70.5 -29.5t-29.5 -70.5t29.5 -70.5t70.5 -29.5zM1800 300v1200q0 41 -29.5 70.5t-70.5 29.5h-154l54 -63v-237h-1200v238l55 62h-155q-41 0 -70.5 -29.5 t-29.5 -70.5v-1200q0 -41 29.5 -70.5t70.5 -29.5h1400q41 0 70.5 29.5t29.5 70.5zM1500 1100l-200 -700h-200l-100 500l-100 -500h-208l-192 700h200l100 -500l100 500h200l100 -500l100 500h200z" />
<glyph unicode="&#xf217;" d="M1238 1800l262 -300v-100h-1000v100l264 300h474zM1000 1500q41 0 70.5 29t29.5 71q0 41 -29.5 70.5t-70.5 29.5t-70.5 -29.5t-29.5 -70.5q0 -42 29.5 -71t70.5 -29zM1545 1600h155q41 0 70.5 -29.5t29.5 -70.5v-1200q0 -42 -29.5 -71t-70.5 -29h-1400q-41 0 -70.5 29 t-29.5 71v1200q0 41 29.5 70.5t70.5 29.5h155l-55 -63v-237h1200v237zM1400 900v200h-800v-200h300v-500h200v500h300z" />
<glyph unicode="&#xf218;" d="M1429 1541l110 -111q61 -60 61 -147v-212q0 -87 -61 -147l-663 -663q-60 -61 -147 -61t-147 61l-111 110l-110 111q-61 60 -61 147v212q0 87 61 148l663 662q60 61 147 61q86 0 147 -61zM808 571l642 642q29 29 29 71t-29 72l-214 214q-29 29 -72 29q-42 0 -71 -29 l-642 -642q-29 -30 -29 -72t29 -71l214 -214q29 -29 71.5 -29t71.5 29z" />
<glyph unicode="&#xf219;" d="M1600 1800h-300v-100h-600v100h-300v-1500h300v100h600v-100h300v1500zM600 1700v-100h-100v100h100zM1500 1700v-100h-100v100h100zM1300 1600v-500h-600v500h600zM600 1500v-100h-100v100h100zM1500 1500v-100h-100v100h100zM600 1300v-100h-100v100h100zM1500 1300 v-100h-100v100h100zM600 1100v-100h-100v100h100zM1500 1100v-100h-100v100h100zM1300 1000v-500h-600v500h600zM600 900v-100h-100v100h100zM1500 900v-100h-100v100h100zM600 700v-100h-100v100h100zM1500 700v-100h-100v100h100zM600 500v-100h-100v100h100zM1500 500 v-100h-100v100h100z" />
<glyph unicode="&#xf220;" d="M1000 1460q190 0 291 -108q100 -108 100 -313q0 -192 -69 -327q-33 -62 -87.5 -111.5t-134.5 -100.5v-200h600v200h-369q146 101 212 234q74 153 74 335q0 267 -165 422q-166 155 -452 155q-287 0 -452 -157q-165 -156 -165 -420q0 -181 73 -333q62 -130 210 -236h-366 v-200h600v200q-84 55 -139 105t-85 112q-67 133 -67 322q0 206 100 313q99 108 291 108z" />
<glyph unicode="&#xf221;" d="M700 1600v100h-400v-100h400zM1700 1500v200h-900v-200h900zM700 1300h-200v200l-400 -350l400 -350v200h200v300zM1700 1200v200h-900v-200h900zM1500 900v200h-700v-200h700zM1700 600v200h-900v-200h900zM700 600v100h-400v-100h400zM1100 300v200h-300v-200h300z" />
<glyph unicode="&#xf222;" d="M300 1500v200h900v-200h-900zM1300 1600v100h400v-100h-400zM1300 1300h200v200l400 -350l-400 -350v200h-200v300zM300 1200v200h900v-200h-900zM500 900v200h700v-200h-700zM300 600v200h900v-200h-900zM1300 600v100h400v-100h-400zM900 300v200h300v-200h-300z" />
<glyph unicode="&#xf223;" d="M1700 1000q0 190 -94 351.5t-255 255t-351 93.5q-143 0 -272.5 -55.5t-223 -149t-149 -223t-55.5 -272.5t55.5 -272.5t149 -223t223 -149t272.5 -55.5q190 0 351 93.5t255 255t94 351.5zM1070 852h-156v43q0 56 24 98q22 39 88 89q61 43 81 71q20 26 20 62q0 37 -28 58 q-28 19 -79 19q-88 0 -200 -57l-64 128q131 74 277 74q120 0 192 -58q71 -58 71 -155q0 -66 -29 -111q-27 -45 -111 -106q-55 -40 -71 -63q-15 -22 -15 -57v-35zM923 578q-27 26 -27 73q0 50 26 75t77 25q47 0 75 -26q27 -26 27 -74q0 -47 -27 -72q-27 -27 -75 -27t-76 26z " />
<glyph unicode="&#xf224;" d="M1582 775q40 0 74 7q33 7 73 20v-84q-70 -26 -158 -26q-131 0 -201 79q-59 67 -68 179h-94q18 -32 18 -79q0 -80 -55 -126q-57 -45 -156 -45h-215v250h-141l93 -250h-103l-59 167h-228l-58 -167h-104l93 250h-93v100h131l93 249h106l92 -249h178v250h177q115 0 177 -41 q55 -36 55 -113q0 -52 -27 -87l-8 -9h129q8 62 31 110q36 71 98 106q64 37 151 37q93 0 169 -38l-35 -81q-26 13 -64 25q-35 11 -71 11q-83 0 -131 -59q-35 -44 -44 -111h293v-100h-295q9 -77 44 -119q45 -56 133 -56zM444 1104l-18 -54h104l-22 61q-2 5 -7.5 22t-9.5 29 q-12 41 -14 51q-14 -59 -33 -109zM897 1213v-163h119q39 3 64 18q28 19 28 66q0 42 -30 61q-30 18 -97 18h-84zM564 949v1h-173v-1h173zM1092 948l-3 2h-192v-168h104q60 0 92 23q31 24 31 74q0 46 -32 69z" />
<glyph unicode="&#xf225;" d="M1774 1774q126 -127 126 -305t-126 -305l-153 -152q-45 -46 -108 -77l-213 65l169 164l76 77l76 76q63 63 63 152t-63 152q-63 64 -152 64t-152 -64l-77 -76l-76 -76l-164 -169l-65 214q31 63 77 107l152 153q127 126 305.5 126t304.5 -126zM200 1600l800 -600l-600 800z M600 1800l400 -800l-200 800h-200zM200 1400l800 -400l-800 200v200zM936 631l64 69l74 -235l-138 -139q-127 -126 -305 -126t-305 126q-126 126 -126 305t126 305l139 138l235 -74l-69 -64l-152 -153q-64 -63 -64 -152t64 -152q63 -64 152 -64t152 64zM1800 400l-800 600 l600 -800zM1400 200l-400 800l200 -800h200zM1800 600l-800 400l800 -200v-200z" />
<glyph unicode="&#xf226;" d="M376 400h1248q176 219 176 500q0 163 -63.5 311t-170.5 255t-255 170.5t-311 63.5t-311 -63.5t-255 -170.5t-170.5 -255t-63.5 -311q0 -281 176 -500zM1000 1600q41 0 70.5 -29.5t29.5 -70.5t-29.5 -70.5t-70.5 -29.5t-70.5 29.5t-29.5 70.5t29.5 70.5t70.5 29.5z M600 1400q41 0 70.5 -29.5t29.5 -70.5t-29.5 -70.5t-70.5 -29.5t-70.5 29.5t-29.5 70.5t29.5 70.5t70.5 29.5zM1400 1400q41 0 70.5 -29.5t29.5 -70.5t-29.5 -70.5t-70.5 -29.5t-70.5 29.5t-29.5 70.5t29.5 70.5t70.5 29.5zM863 845l337 455v-600q0 -82 -59 -141t-141 -59 t-141 59t-59 141q0 85 63 145zM400 1000q41 0 70.5 -29.5t29.5 -70.5t-29.5 -70.5t-70.5 -29.5t-70.5 29.5t-29.5 70.5t29.5 70.5t70.5 29.5zM1600 1000q41 0 70.5 -29.5t29.5 -70.5t-29.5 -70.5t-70.5 -29.5t-70.5 29.5t-29.5 70.5t29.5 70.5t70.5 29.5zM1100 700 q0 41 -29.5 70.5t-70.5 29.5t-70.5 -29.5t-29.5 -70.5t29.5 -70.5t70.5 -29.5t70.5 29.5t29.5 70.5z" />
<glyph unicode="&#xf227;" d="M500 200v1500h-200v-1500h200zM600 800v800q83 28 189 28.5t214.5 -14t220.5 -29t239 -13.5t237 28v-800q-83 -35 -201 -39t-229.5 13t-239 32.5t-229.5 19.5t-201 -26z" />
<glyph unicode="&#xf228;" d="M300 1600h1400v-200h-1400v200zM300 1100h1400v-200h-1400v200zM300 600h1400v-200h-1400v200z" />
<glyph unicode="&#xf229;" d="M300 997l600 403v-800zM1100 1400l600 -403l-600 -397v800z" />
<glyph unicode="&#xf230;" d="M1000 1800q-163 0 -301 -80.5t-218.5 -218.5t-80.5 -301q0 -142 70 -266.5t183 -222.5q4 -3 23.5 -19.5t29.5 -25.5t30 -27.5t34.5 -33t33 -35.5t34.5 -42q133 -174 162 -271q29 97 162 271q16 21 34.5 42t33 35.5t34.5 33t30 27.5t29.5 25.5t23.5 19.5q113 98 183 222.5 t70 266.5q0 163 -80.5 301t-218.5 218.5t-301 80.5zM1000 1544q142 0 243 -101t101 -243t-101 -243t-243 -101t-243 101t-101 243t101 243t243 101z" />
<glyph unicode="&#xf231;" d="M1300 686l117 594q60 33 96.5 91.5t36.5 128.5q0 104 -73 177t-177 73t-177 -73t-73 -177q0 -70 36.5 -128.5t96.5 -91.5zM1300 1650q62 0 106 -44t44 -106t-44 -106t-106 -44t-106 44t-44 106t44 106t106 44zM1472 1170l328 133v-900l-488 -203l-612 203l-500 -200v900 l500 200l427 -141l173 -730z" />
<glyph unicode="&#xf232;" d="M400 500v300h-200v1000h1200v-300h200v-300h200v-1000h-1200v300h-200zM1100 1700q-82 0 -141 -59t-59 -141h400q0 83 -58.5 141.5t-141.5 58.5zM400 900v500h-100v-500h100zM1100 1200h400q0 83 -58.5 141.5t-141.5 58.5q-82 0 -141 -59t-59 -141zM600 600v500h-100 v-500h100zM1500 700q83 0 141.5 58.5t58.5 141.5q0 82 -59 141t-141 59t-141 -59t-59 -141q0 -83 58.5 -141.5t141.5 -58.5zM1700 300v200q-101 0 -185.5 16.5t-144.5 43t-115 58.5l-110 64t-115 58.5t-144.5 43t-185.5 16.5v-500h1000z" />
<glyph unicode="&#xf233;" d="M500 1700h1400v-1100h-200v-200h-200v-200h-1400v1100h200v200h200v200zM1800 700v900h-1200v-900h1200zM1500 1100q-82 0 -141 59t-59 141t59 141t141 59t141 -59t59 -141t-59 -141t-141 -59zM1600 500v100h-1100v800h-100v-900h1200zM700 1400l1000 -600h-1000v600z M1400 300v100h-1100v800h-100v-900h1200z" />
<glyph unicode="&#xf234;" d="M800 1500q0 41 -29.5 70.5t-70.5 29.5h-500q-41 0 -70.5 -29.5t-29.5 -70.5q0 -42 30.5 -71t69.5 -29h500q41 0 70.5 29.5t29.5 70.5zM1400 1000l400 400v-1000l-400 400v200zM1300 600v600q0 41 -29.5 70.5t-70.5 29.5h-800q-41 0 -70.5 -29.5t-29.5 -70.5v-600 q0 -41 29.5 -70.5t70.5 -29.5h800q41 0 70.5 29.5t29.5 70.5z" />
<glyph unicode="&#xf235;" d="M1200 700v600q0 82 -59 141t-141 59h-700q-82 0 -141 -59t-59 -141v-600q0 -82 59 -141t141 -59h700q82 0 141 59t59 141zM1300 950l600 -450v1000l-600 -450v-100z" />
<glyph unicode="&#xf236;" d="M1900 500v1000q0 82 -59 141t-141 59h-1300q-82 0 -141 -59t-59 -141v-1000q0 -82 59 -141t141 -59h1300q82 0 141 59t59 141zM800 600v800l600 -400z" />
<glyph unicode="&#xf237;" d="M1450 800q124 0 212 -88t88 -212t-88 -212t-212 -88t-212 88t-88 212q0 34 9 69l-438 230q-89 -99 -221 -99q-124 0 -212 88t-88 212t88 212t212 88q130 0 221 -99l438 230q-9 35 -9 69q0 124 88 212t212 88t212 -88t88 -212t-88 -212t-212 -88q-130 0 -221 99l-438 -230 q9 -35 9 -69t-9 -69l438 -230q89 99 221 99z" />
<glyph unicode="&#xf238;" d="M1800 1650q0 -46 -25.5 -83.5t-66.5 -54.5v-1311h-1509l422 673q-21 37 -21 76q0 62 44 106t106 44t106 -44t44 -106q0 -17 -5 -37l144 -63q45 50 111 50q22 0 51 -9l358 641q-59 44 -59 118q0 62 44 106t106 44q25 0 53 -10l5 9v-11q41 -17 66.5 -54.5t25.5 -83.5z M1608 301v1114l-329 -589q21 -37 21 -76q0 -62 -44 -106t-106 -44t-106 44t-44 106l1 7l-163 72q-40 -29 -88 -29q-24 0 -51 10l-320 -509h1229z" />
<glyph unicode="&#xf239;" d="M1800 200l1 1228q45 27 72 72.5t27 99.5q0 82 -59 141t-141 59t-141 -59t-59 -141q0 -59 31.5 -107.5t82.5 -72.5l-413 -658q-52 38 -116 38q-62 0 -112 -34t-73 -90l-214 153q14 34 14 71q0 83 -58.5 141.5t-141.5 58.5t-141.5 -58.5t-58.5 -141.5q0 -54 26.5 -99 t71.5 -72l-298 -529h1700zM1700 1700q41 0 70.5 -29.5t29.5 -70.5t-29.5 -70.5t-70.5 -29.5t-70.5 29.5t-29.5 70.5t29.5 70.5t70.5 29.5zM500 1000q41 0 70.5 -29.5t29.5 -70.5t-29.5 -70.5t-70.5 -29.5t-70.5 29.5t-29.5 70.5t29.5 70.5t70.5 29.5zM1085 700 q41 0 70.5 -29.5t29.5 -70.5t-29.5 -70.5t-70.5 -29.5t-70.5 29.5t-29.5 70.5t29.5 70.5t70.5 29.5z" />
<glyph unicode="&#xf240;" d="M1622 1420q35 -52 23.5 -112.5t-63.5 -95.5t-112.5 -23.5t-95.5 63.5q-21 31 -55 67q-36 34 -67 55q-37 25 -77 41q-42 19 -84 26q-90 20 -182 1q-43 -9 -84 -27q-40 -16 -77 -41q-33 -22 -66 -55q-34 -34 -56 -67q-24 -36 -41 -76q-1 -2 -1 -4q-12 -30 -23 -72h-461v300 h266q9 16 12 20q42 62 91 111q51 51 111 91q63 43 128 70q71 30 141 43q151 32 302 0q70 -13 141 -43q65 -27 128 -70q60 -40 111 -91q49 -49 91 -111zM1250 1000q0 104 -73 177t-177 73t-177 -73t-73 -177t73 -177t177 -73t177 73t73 177zM378 580q-35 52 -23.5 113 t63.5 96t113 23t95 -64q21 -31 55 -67q36 -34 67 -55q37 -25 77 -41q36 -16 84 -26q87 -19 182 0q48 10 84 26q40 16 77 41q33 22 66 55q31 31 56 67q26 41 41 76q1 2 1 4q12 30 23 72h461v-300h-266q-2 -2 -5.5 -9t-6.5 -11q-42 -62 -91 -111q-51 -51 -111 -91 q-63 -43 -128 -70q-64 -27 -141 -43q-151 -32 -302 0q-77 16 -141 43q-65 27 -128 70q-60 40 -111 91q-49 49 -91 111z" />
<glyph unicode="&#xf242;" d="M1800 1200l-500 -400v299q-86 -2 -152.5 -9t-143.5 -26t-141 -50.5t-132.5 -85.5t-130.5 -128q22 269 199 421t501 173v306zM400 600h1100v200l200 160v-560h-1500v1100h943q-274 -48 -441 -200h-302v-700z" />
<glyph unicode="&#xf301;" d="M1894 1554q-75 -112 -183 -190q1 -15 1 -47q0 -147 -43 -294.5t-131 -282.5t-210 -239t-293 -166t-366 -62q-304 0 -563 165q48 -5 88 -5q255 0 455 157q-119 2 -212.5 73t-129.5 182q39 -7 69 -7q47 0 96 13q-127 26 -210.5 127t-83.5 233v4q80 -43 166 -46 q-75 51 -119 131.5t-44 174.5q0 100 50 184q138 -169 334.5 -270.5t421.5 -112.5q-10 45 -10 84q0 151 107.5 258.5t259.5 107.5q160 0 268 -116q126 26 233 89q-43 -132 -162 -202q107 11 211 57z" />
<glyph unicode="&#xf302;" d="M605 1800q-87 0 -148.5 -61.5t-61.5 -148.5v-908q0 -6 -1 -9q0 -209 117.5 -337.5t342.5 -134.5q2 0 7 -0.5t8 -0.5h521q86 0 148 62t62 149t-62 148.5t-148 61.5h-544q-30 0 -30 39v303h574q86 0 148 61.5t62 148.5t-62 149t-148 62h-574v206q0 87 -62 148.5t-149 61.5z " />
<glyph unicode="&#xf303;" d="M1492 200h308q0 214 -57.5 418t-161 376.5t-251 318t-323 247.5t-383 158.5t-424.5 56.5v-302q210 0 407 -64.5t356 -182t278.5 -274t185 -351t65.5 -401.5zM948 200h308q0 211 -84 403.5t-225.5 332t-337 222t-409.5 82.5v-302q150 0 286 -56t243 -160 q106 -104 162.5 -239t56.5 -283zM413 202q88 0 150.5 61t62.5 148q0 86 -62.5 147.5t-150.5 61.5t-150.5 -61.5t-62.5 -147.5q0 -87 62 -148t151 -61z" />
<glyph unicode="&#xf304;" d="M289 1800h1423q37 0 62.5 -25.5t25.5 -62.5v-1424q0 -36 -25.5 -62t-62.5 -26h-408v620h208l31 241h-239v154q0 59 25 88.5t95 29.5h128v216q-66 9 -186 9q-142 0 -226.5 -83.5t-84.5 -235.5v-178h-209v-241h209v-620h-766q-37 0 -63 26t-26 62v1424q0 37 26 62.5 t63 25.5z" />
<glyph unicode="&#xf305;" d="M846 200h293v730h245l37 284h-282v182q0 69 29.5 103.5t111.5 34.5h151v255q-95 11 -219 11q-167 0 -266.5 -98.5t-99.5 -277.5v-210h-246v-284h246v-730z" />
<glyph unicode="&#xf306;" d="M600 1500v200h-300v-200h300zM1800 500v1100h-900l-200 -200h-500v-900h1600zM1100 1300q124 0 212 -88t88 -212t-88 -212t-212 -88t-212 88t-88 212t88 212t212 88z" />
<glyph unicode="&#xf307;" d="M803 1554q-7 -40 -4.5 -85.5t20.5 -92t42 -84t61 -61t78 -23.5q50 0 94 36t68 89t35.5 113t-1.5 108q-16 72 -72.5 117.5t-123.5 45.5q-68 0 -124 -45.5t-73 -117.5zM390 1464q-13 -55 4 -123t61.5 -119t101.5 -51t101.5 51t61.5 119t4 123q-14 61 -62 100t-105 39 t-105 -39t-62 -100zM1276 1464q-13 -55 4 -123t61.5 -119t100.5 -51q57 0 101.5 51t61.5 119t4 123q-14 61 -62 100t-105 39t-104.5 -39t-61.5 -100zM1217 321l125 430q37 126 6 215t-122 138t-226 49q-207 0 -304 -109t-40 -293l126 -430q17 -53 79.5 -87t138.5 -34 q75 0 137.5 34t79.5 87zM607 1084q-107 -147 -42 -359l112 -379q-53 -31 -120 -31q-65 0 -117.5 28.5t-67.5 74.5l-107 365q-48 156 34 248t258 92q41 0 79 -6q-11 -11 -29 -33zM1442 1123q176 0 258.5 -92t33.5 -248l-107 -365q-15 -46 -67.5 -74.5t-117.5 -28.5 q-67 0 -120 31l111 377q67 215 -42 361q-13 18 -28 33q38 6 79 6z" />
<glyph unicode="&#xf308;" d="M1770 1368l141 -142l-347 -341l-142 142l84 82q-54 129 -151 231l-461 -659l-526 -470q-29 -29 -70.5 -29t-71.5 29l-120 121q-29 29 -29 70.5t29 70.5l1097 992q-231 145 -567 148q412 125 658 30q25 -10 50 -23.5t44.5 -25t45 -33t39.5 -32.5t40 -39t35.5 -37.5t37 -43 t33 -40t34.5 -44t32 -40.5z" />
<glyph unicode="&#xf309;" d="M855 1694q20 -7 21 -22t-11 -35.5t-30 -44.5t-32 -51.5t-19.5 -54t9 -54.5t52.5 -51q23 -17 61 -5t75 37t82.5 63.5t83.5 74t78 69t65 47.5q39 22 84.5 30t95 0t96 -47t77.5 -106q33 -72 41 -182t-14.5 -239.5t-70 -255.5t-135 -242t-200.5 -187q-117 -74 -246.5 -106 t-252.5 -20t-233.5 58.5t-198.5 132.5t-139 201q-29 66 -39.5 141t-2.5 147.5t30 147.5t57.5 142.5t79 131t95 113.5t106.5 91t113 62t113.5 27.5t108.5 -13.5zM976 1049q30 -68 126 -56q91 12 173 84q96 86 93 187q-1 34 -13 65q-26 65 -124 33q-92 -29 -176 -112 q-94 -94 -87 -171q2 -16 8 -30z" />
<glyph unicode="&#xf310;" d="M400 1400h600v200h-800v-1201h800v201h-600v800zM600 1200h600v300l600 -500l-600 -500v300h-600v400z" />
<glyph unicode="&#xf311;" d="M376 299h1248q176 221 176 501q0 162 -63.5 310.5t-170.5 255.5t-255 170.5t-311 63.5t-311 -63.5t-255 -170.5t-170.5 -255.5t-63.5 -310.5q0 -280 176 -501zM900 1400q0 41 29.5 70.5t70.5 29.5t70.5 -29.5t29.5 -70.5q0 -42 -29.5 -71t-70.5 -29t-70.5 29t-29.5 71z M400 1200q0 41 29.5 70.5t70.5 29.5t70.5 -29.5t29.5 -70.5q0 -42 -29.5 -71t-70.5 -29t-70.5 29t-29.5 71zM852 860q37 37 200 124.5t307 156.5l144 69q-30 -64 -76.5 -160.5t-141 -275t-131.5 -215.5q-63 -63 -151 -63t-151 63q-62 62 -62 150.5t62 150.5zM300 700 q0 41 29.5 70.5t70.5 29.5t70.5 -29.5t29.5 -70.5q0 -42 -29.5 -71t-70.5 -29t-70.5 29t-29.5 71zM900 700q0 41 29.5 70.5t70.5 29.5t70.5 -29.5t29.5 -70.5q0 -42 -29.5 -71t-70.5 -29t-70.5 29t-29.5 71zM1500 700q0 41 29.5 70.5t70.5 29.5t70.5 -29.5t29.5 -70.5 q0 -42 -29.5 -71t-70.5 -29t-70.5 29t-29.5 71z" />
<glyph unicode="&#xf312;" d="M1700 1200h100v-1100h-1600v1100h100v200q0 136 67 251t182 182t251 67q105 0 200 -42q95 42 200 42q136 0 251 -67t182 -182t67 -251v-200zM500 1400v-200h200v200q0 164 102 300h-2q-124 0 -212 -88t-88 -212zM1500 1200v200q0 124 -88 212t-212 88h-2 q102 -136 102 -300v-200h200zM1000 1622q-100 -90 -100 -222v-200h200v200q0 132 -100 222z" />
<glyph unicode="&#xf313;" d="M446 1484l54 -230l-54 -229l201 -124l123 -201l230 54l230 -54l123 201l201 124l-54 229l54 230l-200 124l-124 201l-230 -55l-229 54l-125 -200zM1001 850q-167 0 -284 117t-117 284q0 165 117.5 282t283.5 117q165 0 282 -117t117 -282q0 -166 -117 -283.5t-282 -117.5 zM999 950q-124 0 -211.5 87.5t-87.5 212.5q0 124 87.5 212t211.5 88t212.5 -88t88.5 -212t-88 -212t-213 -88zM1383 840l-128 -224l-208 47l253 -583l140 220h250zM613 833l125 -225l213 51l-251 -579l-140 220h-250z" />
<glyph unicode="&#xf314;" d="M200 1800h700v-700h-700v700zM1100 1800v-700h700v700h-700zM550 1550l150 150h-300zM1200 1200v500h500v-500h-500zM450 1450l-150 150v-300zM800 1600l-150 -150l150 -150v300zM550 1350l-150 -150h300zM900 200v700h-700v-700h700zM1800 200h-700v700h700v-700z M800 800v-500h-500v500h500zM1450 650l150 150h-300zM1200 400l150 150l-150 150v-300zM1550 550l150 -150v300zM1450 450l-150 -150h300z" />
<glyph unicode="&#xf315;" d="M1500 1400v-200q82 0 141 -59t59 -141v-700q0 -82 -59 -141t-141 -59h-1000q-82 0 -141 59t-59 141v700q0 82 59 141t141 59v200q0 136 67 251t182 182t251 67t251 -67t182 -182t67 -251zM800 1400v-200h400v200q0 82 -59 141t-141 59t-141 -59t-59 -141zM1080 375v217 q54 24 87 73.5t33 109.5q0 83 -59 141.5t-141 58.5t-141 -58.5t-59 -141.5q0 -60 33 -109.5t87 -73.5v-217h160z" />
<glyph unicode="&#xf316;" d="M1401 1600v-600h200v800h-1201v-800h201v600h800zM1201 1400v-600h300l-500 -600l-500 600h300v600h400z" />
<glyph unicode="&#xf317;" d="M800 600v600h-300l500 600l500 -600h-300v-600h-400zM600 400v600h-200v-800h1201v800h-201v-600h-800z" />
<glyph unicode="&#xf318;" d="M500 1300h1300v-1000h-1600v1300h700l200 -200h-700v-900h100v800z" />
<glyph unicode="&#xf319;" d="M1900 1000q0 183 -71.5 349.5t-192 287t-287 192t-349.5 71.5t-349.5 -71.5t-287 -192t-192 -287t-71.5 -349.5t71.5 -349.5t192 -287t287 -192t349.5 -71.5t349.5 71.5t287 192t192 287t71.5 349.5zM800 990q-378 39 -548 229q74 240 271.5 396t453.5 167 q-33 -55 -56 -126t-32 -149t12 -154.5t73 -127.5q-35 -5 -69 6t-58.5 30t-51 40t-45.5 36t-43 17.5t-44 -14.5q-88 -69 -42 -150q50 -88 228 -144q62 -20 134 -33q97 -17 164.5 -40.5t106.5 -49.5t60 -62.5t27 -71t5 -84.5q-6 -298 -406 -470q2 86 -11.5 153t-38 109 t-55 73.5t-63.5 52t-62.5 37t-54 36.5t-35.5 43q10 42 18.5 67.5t27.5 61.5t52 66t82 56zM1649 1422q31 -48 54.5 -97.5t38.5 -92.5t23 -89t11.5 -81t1.5 -75.5t-4.5 -66t-10 -58.5t-11.5 -46.5t-12 -37.5l-7 -24q-21 51 -52 95.5t-60.5 74.5t-57.5 58t-50.5 60t-32.5 66 q-39 137 169 314z" />
<glyph unicode="&#xf320;" d="M552 1800h743q41 0 70.5 -29.5t29.5 -70.5t-29.5 -70.5t-70.5 -29.5h-100v-1300q0 -41 -29.5 -70.5t-70.5 -29.5t-70.5 29.5t-29.5 70.5v1200q0 41 -29.5 70.5t-70.5 29.5t-70.5 -29.5t-29.5 -70.5v-1200q0 -41 -29.5 -70.5t-70.5 -29.5t-70.5 29.5t-29.5 70.5v596h-43 q-123 0 -227 60.5t-164.5 164.5t-60.5 227t60.5 227t164.5 164.5t227 60.5zM1400 600l500 400l-500 400v-800z" />
<glyph unicode="&#xf321;" d="M1365 1712q145 -74 248 -198t149 -268.5t35 -305t-85 -305.5t-198 -247.5t-268 -149t-305 -35.5t-306 85q-138 71 -237 185t-149 255l164 103q34 -120 113.5 -218t194.5 -158q111 -57 234 -65.5t233 27t204.5 114.5t151.5 190t66 234t-27 233t-114.5 205t-189.5 152 t-234 65.5t-233 -27t-204.5 -114.5t-151.5 -190l188 -97l-495 -308l-39 582l178 -91q74 145 198.5 248t269 149t305 34.5t304.5 -84.5zM929 929q-29 29 -29 71q0 4 2 10t2 9h-1l97 481l97 -481l303 -319l-450 212l2 2q-13 7 -23 15z" />
<glyph unicode="&#xf322;" d="M400 1500h-322q-30 0 -51.5 -23.5t-17.5 -60.5l156 -999q185 736 221 913q8 36 36.5 53t61.5 17h516q-70 208 -77 231q-19 69 -78 69h-331q-28 0 -50.5 -17t-29.5 -47zM888 1500h-400q2 4 5 11t12.5 24t19.5 30t23.5 24t26.5 11h213q21 0 46 -25t40 -50zM267 375 q-49 -75 -126 -75h1573q40 0 67.5 22t35.5 61l168 844q5 35 -15 54t-47 19h-323v147q0 15 -19.5 34t-46.5 19h-376q-23 0 -45 -14.5t-32 -29.5l-10 -14l-71 -142h-441q-25 0 -45 -13.5t-24 -36.5q-159 -670 -172 -733q-17 -92 -51 -142zM1538 1300h-438q2 4 6.5 11t17.5 24 t25.5 30t30.5 24t33 11h229q20 0 37 -10.5t27.5 -25t18 -29t10.5 -25.5z" />
<glyph unicode="&#xf323;" d="M1100 1800h700v-700l-1000 -1000l-700 700zM1400 1200q82 0 141 59t59 141t-59 141t-141 59t-141 -59t-59 -141t59 -141t141 -59z" />
<glyph unicode="&#xf324;" d="M2000 1000q0 203 -79.5 388t-213.5 319t-319 213.5t-388 79.5t-388.5 -79.5t-319.5 -213.5t-213 -319t-79 -388q0 -163 50.5 -315.5t143 -275.5t215.5 -215.5t275.5 -143t315.5 -50.5q203 0 388 79t319 213t213.5 319.5t79.5 388.5zM778 463l-341 915l117 8q24 3 32 31 t-3 54.5t-35 25.5q-145 -11 -237 -11q-37 0 -58 1q121 186 318.5 294t428.5 108q172 0 327.5 -61t277.5 -173q-58 9 -111.5 -33.5t-53.5 -124.5q0 -18 4.5 -37.5t8.5 -32.5t16 -36.5t17 -31.5t22.5 -37t21.5 -35q55 -96 55 -246q0 -66 -35 -191t-70 -217l-35 -92l-303 837 q24 1 44.5 5t29.5 8l8 4q24 2 32 33t-3 60.5t-35 28.5q-144 -12 -238 -12q-39 0 -97 3t-97 6l-39 3q-24 1 -35 -29t-3 -61t32 -32l92 -8l126 -341zM1741 1000q12 32 17.5 47t16.5 60.5t14.5 85t3.5 102t-9 130.5q105 -193 105 -425q0 -245 -119 -453.5t-321 -324.5 q247 661 292 778zM610 191q-226 109 -362.5 328t-136.5 481q0 196 72 359q336 -921 427 -1168zM1013 854l258 -698q-133 -45 -271 -45q-121 0 -229 33q28 83 112.5 329.5t129.5 380.5z" />
<glyph unicode="&#xf325;" d="M1800 700h100q41 0 70.5 -29.5t29.5 -71.5v-298q0 -42 -29.5 -71.5t-70.5 -29.5h-400q-41 0 -70.5 29.5t-29.5 71.5v298q0 42 29.5 71.5t70.5 29.5h100v200h-500v-200h100q41 0 70.5 -29.5t29.5 -71.5v-298q0 -42 -29.5 -71.5t-70.5 -29.5h-400q-41 0 -70.5 29.5 t-29.5 71.5v298q0 42 29.5 71.5t70.5 29.5h100v200h-500v-200h100q41 0 70.5 -29.5t29.5 -71.5v-298q0 -42 -29.5 -71.5t-70.5 -29.5h-400q-41 0 -70.5 29.5t-29.5 71.5v298q0 42 29.5 71.5t70.5 29.5h100v200q0 82 59 141t141 59h500v200h-100q-41 0 -70.5 29.5t-29.5 71.5 v298q0 42 29.5 71.5t70.5 29.5h400q41 0 70.5 -29.5t29.5 -71.5v-298q0 -42 -29.5 -71.5t-70.5 -29.5h-100v-200h500q82 0 141 -59t59 -141v-200z" />
<glyph unicode="&#xf326;" d="M1100 1300h-151q-46 0 -89.5 -19.5t-69.5 -50.5l-90 270h-287l-239 -700h169l74 200h283v-400h-500q-82 0 -141 59t-59 141v700q0 82 59 141t141 59h700q82 0 141 -59t59 -141v-200zM651 1100h-202l100 293zM1000 1200h700q82 0 141 -59t59 -141v-700q0 -82 -59 -141 t-141 -59h-700q-82 0 -141 59t-59 141v700q0 82 59 141t141 59zM1725 700v108h-317v217h-116v-217h-317v-108h128q9 -66 42 -136t86 -126q-64 -26 -131.5 -44t-99.5 -18l5 -26q5 -26 10.5 -62t4.5 -58q62 0 154 32.5t174 82.5q83 -50 177 -82.5t157 -32.5q-1 14 1 33.5 t5 38.5t6 35.5t6 27.5l2 11q-33 0 -103 18.5t-135 44.5q51 56 83.5 126t41.5 135h136zM1344 507q-76 70 -101 193h209q-26 -124 -100 -193l-4 -3q-3 2 -4 3z" />
<glyph unicode="&#xf327;" d="M1480 1812l334 -335q41 -44 40.5 -104t-37.5 -98l-986 -988l-686 -143l143 688q937 940 985 989q35 37 100 35t107 -44zM1143 1468l-688 -691l137 -137l682 697zM777 454l688 691l-132 132l-689 -689z" />
<glyph unicode="&#xf328;" d="M700 1480q83 0 141.5 -58.5t58.5 -141.5q0 -52 -28 -100q-72 20 -172 20q-44 0 -87 -5t-64 -10l-21 -5q-28 48 -28 100q0 83 58.5 141.5t141.5 58.5zM1300 1480q83 0 141.5 -58.5t58.5 -141.5q0 -52 -28 -100q-72 20 -172 20q-44 0 -87 -5t-64 -10l-21 -5q-28 48 -28 100 q0 83 58.5 141.5t141.5 58.5zM1000 110q279 0 506 162t317 426l-132 46q-76 -222 -266.5 -358t-424.5 -136t-424.5 136t-266.5 358l-132 -46q90 -264 317 -426t506 -162z" />
<glyph unicode="&#xf329;" d="M1500 1300v200h-1000v-200h1000zM1500 900v200h-1000v-200h1000zM1500 500v200h-1000v-200h1000z" />
<glyph unicode="&#xf330;" d="M1600 1700h200v-1600h-1300q-124 0 -212 88t-88 212v1200q0 124 88 212t212 88h900v-1400h-900q-41 0 -70.5 -29.5t-29.5 -70.5t29.5 -70.5t70.5 -29.5h1100v1400z" />
<glyph unicode="&#xf331;" d="M500 300h1300v-200h-1300q-124 0 -212 88t-88 212v1200q0 124 88 212t212 88h1300v-1400h-1300q-41 0 -70.5 -29.5t-29.5 -70.5t29.5 -70.5t70.5 -29.5zM700 650v1100q0 21 -14.5 35.5t-35.5 14.5t-35.5 -14.5t-14.5 -35.5v-1100q0 -21 14.5 -35.5t35.5 -14.5t35.5 14.5 t14.5 35.5z" />
<glyph unicode="&#xf332;" d="M1000 1800q12 -8 34.5 -21.5t96 -48t150.5 -61t192 -48t227 -21.5q0 -224 -38.5 -423t-100.5 -336.5t-136.5 -252.5t-149 -184.5t-136.5 -117.5t-101 -67l-38 -19q-9 4 -24.5 11.5t-63.5 38.5t-94 68.5t-109 103.5t-117.5 141.5t-109.5 185t-94 231t-63.5 282.5 t-24.5 338q112 0 225.5 20.5t195 50t147 59t98.5 50.5zM1000 1000h500q4 4 11 13t24 48t30 90t24 144t11 205q-20 4 -54.5 11.5t-126 30t-167 45t-150 54t-102.5 59.5v-700h-500q28 -112 90 -225.5t130 -195t132 -147t106 -98.5l42 -34v700z" />
<glyph unicode="&#xf333;" d="M1700 1300v200h-1400v-200h1400zM1700 900v200h-1400v-200h1400zM1700 500v200h-1400v-200h1400z" />
<glyph unicode="&#xf334;" d="M1000 1800q12 -8 34.5 -21.5t96 -48t150.5 -61t192 -48t227 -21.5q0 -224 -38.5 -423t-100.5 -336.5t-136.5 -252.5t-149 -184.5t-136.5 -117.5t-101 -67l-38 -19q-9 4 -24.5 11.5t-63.5 38.5t-94 68.5t-109 103.5t-117.5 141.5t-109.5 185t-94 231t-63.5 282.5 t-24.5 338q112 0 225.5 20.5t195 50t147 59t98.5 50.5z" />
<glyph unicode="&#xf335;" d="M1495 1354l-354 -354l354 -354l-141 -141l-354 353l-353 -353l-142 142l353 353l-353 353l142 142l353 -353l354 353z" />
<glyph unicode="&#xf336;" d="M1800 400h-1600v1200h1600v-1200zM705 1147q19 11 33 24q14 16 24 34q13 26 17 37q5 13 10 34l6 24q0 2 0.5 5t0.5 4q7 45 -4 90q-12 43 -46 72q-35 29 -86 29q-29 0 -56 -11q-26 -12 -41 -30q-17 -20 -27 -44t-12 -51q-1 -18 1 -55l2 -9q2 -11 6 -25q9 -30 10 -33 q6 -18 17 -37q13 -20 25 -33q15 -17 34 -25q19 -9 43 -9t43 9zM1700 1100v400h-500v-400h500zM662 1017l-138 88q-61 0 -114 -32q-53 -33 -81 -85q-29 -52 -29 -107v-125l20 -5q26 -8 55 -14q41 -10 80 -17q34 -7 100 -14q55 -6 107 -6q50 0 107 6q48 5 98 14q54 10 82 17 q16 3 34 8t20 5q13 4 21 6v125q0 55 -31 107q-32 53 -84 86q-53 33 -111 33zM1700 900v100h-500v-100h500zM1700 700v100h-500v-100h500zM1700 500v100h-1400v-100h1400z" />
<glyph unicode="&#xf337;" d="M1800 200h-1600v1600h1600v-1600zM805 1247q19 11 33 24q14 16 24 34q13 26 17 37q5 13 10 34l6 24q0 2 0.5 5t0.5 4q7 45 -4 90q-12 43 -46 72q-35 29 -86 29q-29 0 -56 -11q-26 -12 -41 -30q-17 -20 -27 -44t-12 -51q-1 -18 1 -55l2 -9q2 -11 6 -25q9 -30 10 -33 q6 -18 17 -37q13 -20 25 -33q15 -17 34 -25q19 -9 43 -9t43 9zM1600 1500v100h-500v-100h500zM1600 1300v100h-500v-100h500zM762 1117l-138 88q-61 0 -114 -32q-53 -33 -81 -85q-29 -52 -29 -107v-125l20 -5q26 -8 55 -14q41 -10 80 -17q34 -7 100 -14q56 -6 107 -6 q50 0 107 6q48 5 98 14q54 10 82 17q16 3 34 8t20 5q13 4 21 6v125q0 55 -31 107q-32 53 -84 86q-53 33 -111 33zM1600 1100v100h-300v-100h300zM1600 900v100h-300v-100h300zM1600 600v100h-1200v-100h1200zM1600 400v100h-1200v-100h1200z" />
<glyph unicode="&#xf338;" d="M730 1400l-3 19q-6 55 -3 108q3 56 25 104q22 50 52 86q33 39 83 60q52 23 113 23q103 0 171 -59q69 -60 91 -144q22 -85 9 -178l-3 -19q-1 -10 -11 -48q-7 -33 -20 -69q-13 -34 -34 -72q-18 -35 -47 -69q-25 -26 -67 -48q-39 -19 -86 -19q-46 0 -87 19q-42 21 -67 50 q-25 28 -49 66q-22 36 -34 73q-14 39 -21 67q-9 33 -12 50zM1650 776q50 -85 50 -214v-249q0 -4 -29 -13q-7 -2 -37 -10.5t-60 -16.5q-110 -24 -165 -34q-85 -15 -195 -27q-112 -12 -213 -12t-214 12q-90 8 -198 27q-44 8 -156 34q-43 10 -106 29l-27 11v249q0 134 46 215 q65 115 150 168q47 29 136 42t168 13l167 -167l-67 -133v-300l102 -108l98 108v300l-68 133l165 167q209 0 290 -52q96 -61 163 -172z" />
<glyph unicode="&#xf339;" d="M1000 1900q153 0 282.5 -75.5t205 -204.5t75.5 -282q0 -52 -21 -118t-50.5 -123.5t-59.5 -107.5t-51 -79l-21 -30q-25 -33 -42.5 -86t-17.5 -94v-100q0 -41 -29.5 -70.5t-70.5 -29.5h-400q-41 0 -70.5 29.5t-29.5 70.5v100q0 41 -17.5 94t-42.5 86q-8 11 -21.5 30.5 t-48.5 77t-61.5 110.5t-48.5 120.5t-22 119.5q0 153 75 282t204.5 204.5t282.5 75.5zM700 313v87h600v-87q0 -53 -16 -83t-59 -30h-25q0 -46 -27.5 -73t-74.5 -27h-200q-46 0 -72 26.5t-26 73.5h-25q-43 0 -59 30t-16 83z" />
<glyph unicode="&#xf340;" d="M1800 1100v-200h-1200l400 -400l-100 -200l-700 700l700 700l100 -200l-400 -400h1200z" />
<glyph unicode="&#xf341;" d="M1400 1500l-500 -500l500 -500l-100 -200l-700 700l700 700z" />
<glyph unicode="&#xf342;" d="M1100 200h-200v1200l-400 -400l-200 100l700 700l700 -700l-200 -100l-400 400v-1200z" />
<glyph unicode="&#xf343;" d="M1500 600l-500 500l-500 -500l-200 100l700 700l700 -700z" />
<glyph unicode="&#xf344;" d="M200 900v200h1200l-400 400l100 200l700 -700l-700 -700l-100 200l400 400h-1200z" />
<glyph unicode="&#xf345;" d="M600 500l500 500l-500 500l100 200l700 -700l-700 -700z" />
<glyph unicode="&#xf346;" d="M900 1800h200v-1200l400 400l200 -100l-700 -700l-700 700l200 100l400 -400v1200z" />
<glyph unicode="&#xf347;" d="M500 1400l500 -500l500 500l200 -100l-700 -700l-700 700z" />
<glyph unicode="&#xf348;" d="M1000 1800q163 0 311 -63.5t255 -170.5t170.5 -255t63.5 -311t-63.5 -311t-170.5 -255t-255 -170.5t-311 -63.5t-311 63.5t-255 170.5t-170.5 255t-63.5 311t63.5 311t170.5 255t255 170.5t311 63.5zM1100 1400q0 41 -29.5 70.5t-70.5 29.5t-70.5 -29.5t-29.5 -70.5 t29.5 -70.5t70.5 -29.5t70.5 29.5t29.5 70.5zM1100 500v600h-200v-600h200z" />
<glyph unicode="&#xf349;" d="M2000 1500v300h-2000v-300h2000zM2000 900v300h-2000v-300h2000zM2000 300v300h-2000v-300h2000z" />
<glyph unicode="&#xf448;" d="M1000 2000q163 0 315.5 -50.5t275.5 -143t215.5 -215.5t143 -275.5t50.5 -315.5t-50.5 -315.5t-143 -275.5t-215.5 -215.5t-275.5 -143t-315.5 -50.5t-315.5 50.5t-275.5 143t-215.5 215.5t-143 275.5t-50.5 315.5t50.5 315.5t143 275.5t215.5 215.5t275.5 143 t315.5 50.5zM1000 1950q-193 0 -369 -75t-303.5 -202.5t-202.5 -303.5t-75 -369t75 -369t202.5 -303.5t303.5 -202.5t369 -75t369 75t303.5 202.5t202.5 303.5t75 369t-75 369t-202.5 303.5t-303.5 202.5t-369 75zM1000 1850q173 0 330.5 -67t271.5 -181t181 -271.5 t67 -330.5t-67 -330.5t-181 -271.5t-271.5 -181t-330.5 -67t-330.5 67t-271.5 181t-181 271.5t-67 330.5t67 330.5t181 271.5t271.5 181t330.5 67zM1180 1679q-83 0 -155 -45q118 -28 195.5 -124t77.5 -221q0 -100 -55 -187q99 22 164 101.5t65 183.5q0 121 -85.5 206.5 t-206.5 85.5zM942 1579q-121 0 -206.5 -86t-85.5 -207t85.5 -206.5t206.5 -85.5t207 85.5t86 206.5q0 122 -85.5 207.5t-207.5 85.5zM1367 1078l-51 -59q66 -19 115 -63.5t72.5 -94t38 -96t16.5 -77.5l3 -30h128q0 76 -11 138.5t-29.5 104.5t-43 75t-51 51t-53 30.5 t-51 16.5t-43 5.5t-29.5 0.5zM1157 998l-212 -209l-212 209q-68 -4 -123 -23t-90.5 -48.5t-62.5 -67t-41 -78t-22 -81t-9.5 -76.5t-0.5 -63.5t3 -44.5l2 -16h1108q10 102 -4 184t-43 132.5t-67 88t-77.5 54.5t-73 27t-54.5 11z" />
<glyph unicode="&#xf449;" d="M1350 1300h-700q-62 0 -106 44t-44 106t44 106t106 44h159q-9 29 -9 50q0 62 44 106t106 44h100q62 0 106 -44t44 -106q0 -21 -9 -50h159q62 0 106 -44t44 -106t-44 -106t-106 -44zM400 1200h1200q41 0 70.5 -29.5t29.5 -70.5t-29.5 -70.5t-70.5 -29.5h-1200 q-41 0 -70.5 29.5t-29.5 70.5t29.5 70.5t70.5 29.5zM500 900h1000q41 0 70.5 -29.5t29.5 -70.5t-29.5 -70.5t-70.5 -29.5h-1000q-41 0 -70.5 29.5t-29.5 70.5t29.5 70.5t70.5 29.5zM700 600h600q41 0 70.5 -29.5t29.5 -70.5t-29.5 -70.5t-70.5 -29.5h-109q9 -29 9 -50 q0 -62 -44 -106t-106 -44h-100q-62 0 -106 44t-44 106q0 21 9 50h-109q-41 0 -70.5 29.5t-29.5 70.5t29.5 70.5t70.5 29.5z" />
<glyph unicode="&#xf450;" d="M1044 1834q-44 44 -106 44t-106 -44l-566 -566q-44 -44 -44 -106t44 -106q46 -44 107.5 -43.5t104.5 43.5l566 566q44 44 44 106t-44 106zM1327 1551q-44 44 -106.5 44t-105.5 -44l-566 -566q-44 -43 -44 -105.5t44 -106.5q46 -44 107.5 -43t104.5 43l566 566 q43 43 43 105.5t-43 106.5zM1433 879l418 -418q44 -44 44 -106t-44 -106t-106.5 -44t-105.5 44l-418 418l-177 -177q-44 -44 -106 -44t-106 44t-44 106.5t44 106.5l566 565q44 44 106 44t106 -44t44 -106t-44 -106zM500 500q0 45 -17 102.5t-41.5 107.5t-49 94t-41.5 70 l-17 26q-15 -31 -37 -80.5t-59.5 -157.5t-37.5 -162q0 -90 38.5 -145t95.5 -55h32q62 0 98 44.5t36 155.5z" />
<glyph unicode="&#xf451;" d="M1754 971q88 -88 88 -212.5t-88 -212.5t-212.5 -88t-212.5 88l-34 52q0 -66 -9.5 -124t-22.5 -99.5t-36.5 -79.5t-42.5 -60.5t-49.5 -47t-48 -35.5t-47.5 -28.5t-39 -23.5q-11 8 -49.5 32t-64.5 42t-63.5 58.5t-60.5 85.5t-40 118.5t-17 161.5l-34 -52 q-88 -88 -212.5 -88t-212.5 88t-88 212.5t88 212.5q102 67 210 130q-136 184 -136 411q0 47 8 100q18 -131 84 -245.5t168 -196.5q53 28 126.5 57t110.5 35h-17q-82 0 -141 59t-59 141t59 141t141 59v50q0 21 14.5 35.5t35.5 14.5t35.5 -14.5t14.5 -35.5v-50h200v50 q0 21 14.5 35.5t35.5 14.5t35.5 -14.5t14.5 -35.5v-50q82 0 141 -59t59 -141t-59 -141t-141 -59h-17q36 -6 112.5 -36.5t125.5 -55.5q102 82 168 196.5t84 245.5q8 -53 8 -100q0 -227 -136 -411q48 -28 100 -60.5t81 -50.5zM850 1362q38 0 69 30t31 70q0 41 -29.5 70.5 t-70.5 29.5t-70.5 -29.5t-29.5 -70.5t29.5 -70.5t70.5 -29.5zM1150 1562q-41 0 -70.5 -29.5t-29.5 -70.5t29.5 -70.5t70.5 -29.5t70.5 29.5t29.5 70.5t-29.5 70.5t-70.5 29.5zM920 989q-19 -17 -19 -43q2 -19 16 -32.5t33 -13.5h100q19 0 33 13.5t16 32.5q0 21 -19 43 q-15 11 -30 11h-100q-15 0 -30 -11zM1200 750q0 23 -19 38q-15 12 -31 12h-300q-16 0 -31 -12q-19 -17 -19 -38t14.5 -35.5t35.5 -14.5h300q21 0 35.5 14.5t14.5 35.5zM850 500h300q21 0 35.5 14.5t14.5 35.5t-14.5 35.5t-35.5 14.5h-300q-21 0 -35.5 -14.5t-14.5 -35.5 t14.5 -35.5t35.5 -14.5zM950 300h100q21 0 35.5 14.5t14.5 35.5t-14.5 35.5t-35.5 14.5h-100q-21 0 -35.5 -14.5t-14.5 -35.5t14.5 -35.5t35.5 -14.5z" />
<glyph unicode="&#xf452;" d="M800 1900v-700h200v200q0 115 92 207.5t208 92.5v-86q91 86 200 86v-300h100q82 0 141 -59t59 -141t-59 -141t-141 -59h-100v-100v-1v-499q0 -41 -29.5 -70.5t-70.5 -29.5t-70.5 29.5t-29.5 70.5v218q-51 -18 -100 -18v-200q0 -41 -29.5 -70.5t-70.5 -29.5t-70.5 29.5 t-29.5 70.5v200h-200v-200q0 -41 -29.5 -70.5t-70.5 -29.5t-70.5 29.5t-29.5 70.5v200q-49 0 -100 18v-218q0 -41 -29.5 -70.5t-70.5 -29.5t-70.5 29.5t-29.5 70.5v400h-100v100q0 124 88 212t212 88h200v700h100zM1300 1200q41 0 70.5 29.5t29.5 70.5t-29.5 70.5 t-70.5 29.5t-70.5 -29.5t-29.5 -70.5t29.5 -70.5t70.5 -29.5z" />
<glyph unicode="&#xf453;" d="M900 1700q0 92 -100 200q-40 -40 -70 -98t-30 -102q0 -37 30 -68.5t70 -31.5q41 0 70.5 30t29.5 70zM1300 1700q0 92 -100 200q-40 -40 -70 -98t-30 -102q0 -37 30 -68.5t70 -31.5q41 0 70.5 30t29.5 70zM900 1100v350q0 41 -29.5 70.5t-70.5 29.5q-42 0 -71 -30.5 t-29 -69.5v-350q0 -41 29.5 -70.5t70.5 -29.5q42 0 71 30.5t29 69.5zM1300 1100v350q0 41 -29.5 70.5t-70.5 29.5q-42 0 -71 -30.5t-29 -69.5v-350q0 -41 29.5 -70.5t70.5 -29.5q42 0 71 30.5t29 69.5zM1700 1000q0 109 -95 201t-255 145v-246q0 -62 -44 -106t-106 -44 t-106 44t-44 106v299q-8 0 -25 0.5t-25 0.5t-25 -0.5t-25 -0.5v-299q0 -62 -44 -106t-106 -44t-106 44t-44 106v246q-160 -53 -255 -145t-95 -201q0 -110 78.5 -197.5t242.5 -139.5q32 -10 108.5 -42t142.5 -51t128 -19t128 19t142.5 51.5t108.5 42.5q163 51 242 138.5 t79 197.5zM1000 457q63 0 131.5 19.5t144 50.5t112.5 41q68 19 118.5 43.5t86.5 57.5t57 59.5t50 71.5v-300q0 -109 -93.5 -201t-255 -145.5t-351.5 -53.5t-351.5 53.5t-255 145.5t-93.5 201v300q37 -58 70 -94.5t95.5 -75t149.5 -63.5q35 -10 111.5 -41t143.5 -50t130 -19z " />
<glyph unicode="&#xf454;" d="M875 1423q0 39 -18 92t-43.5 101t-51.5 90.5t-44 67.5l-18 26q-7 -10 -19 -27t-42 -65.5t-53 -93t-42 -98.5t-19 -93q0 -98 43 -135.5t132 -37.5t132 37.5t43 135.5zM1475 1423q0 39 -18 92t-43.5 101t-51.5 90.5t-44 67.5l-18 26q-7 -10 -19 -27t-42 -65.5t-53 -93 t-42 -98.5t-19 -93q0 -98 43 -135.5t132 -37.5t132 37.5t43 135.5zM900 300v800q0 41 -29.5 70.5t-70.5 29.5h-200q-41 0 -70.5 -29.5t-29.5 -70.5v-800q0 -41 29.5 -70.5t70.5 -29.5h200q41 0 70.5 29.5t29.5 70.5zM1500 300v800q0 41 -29.5 70.5t-70.5 29.5h-200 q-41 0 -70.5 -29.5t-29.5 -70.5v-800q0 -41 29.5 -70.5t70.5 -29.5h200q41 0 70.5 29.5t29.5 70.5zM600 900l200 100v-200l-200 -100v200zM1200 900l200 100v-200l-200 -100v200zM600 600l200 100v-200l-200 -100v200zM1200 600l200 100v-200l-200 -100v200z" />
<glyph unicode="&#xf455;" d="M1098 1322l452 -822q-48 -96 -142 -166t-199 -102t-209 -32t-209 32t-199 102t-142 166l450 818q-57 93 -168 146t-261 57l246 292q199 -141 297 -331q51 80 109.5 131t160.5 81l183 -286q-192 46 -369 -86zM817 960l-93 -169q71 -16 154 -16q199 0 355 95l-101 182 q-136 -83 -315 -92zM903 422q147 0 272 50t202 136l-98 176q-77 -86 -202 -136.5t-272 -50.5q-87 0 -176 21l-63 -115q152 -81 337 -81z" />
<glyph unicode="&#xf456;" d="M1545 1375q89 -46 127.5 -130t22.5 -181t-80 -187q-59 -83 -159.5 -134.5t-186.5 -43.5l-264 -499h-105l-265 499q-85 -12 -189.5 40t-165.5 139q-64 90 -80 187t23 181t128 129q68 34 143 31q-2 -62 7 -121q20 -129 99.5 -252t186.5 -185q-30 -86 -88 -125l201 -381v566 q-102 28 -191.5 144t-108.5 248q-20 132 16 246t124 184t210 70t210 -70t124 -184t16 -246q-19 -132 -108.5 -248t-191.5 -144v-577l207 384q-63 33 -99 130q109 61 190 185.5t101 254.5q9 59 7 122q73 2 139 -32z" />
<glyph unicode="&#xf457;" d="M1000 1800q84 0 197.5 -51.5t215 -125t191 -147t142.5 -124.5l54 -52v-1100h-1600v1100q20 20 55.5 54t138 120t196.5 152t210 120t200 54zM1700 328l-373 292l373 280l-43 37l-226 -130l24 431l-877 52l-46 -454l-199 95l-33 -31l373 -280l-344 -285l40 -43l631 408 l653 -415z" />
<glyph unicode="&#xf459;" d="M1000 1900l-300 -600l-600 -75l413 -462l-113 -663l600 300l600 -300l-112 663l412 462l-600 75zM1000 1676l234 -469l465 -58l-318 -356l87 -515l-468 234v1164z" />
<glyph unicode="&#xf460;" d="M400 1100h1200v-200h-1200v200z" />
<glyph unicode="&#xf462;" d="M673 1000h540q9 -52 9 -95q0 -247 -151.5 -403.5t-397.5 -156.5q-156 0 -288 77t-208.5 209t-76.5 287q0 117 45.5 223t122 182.5t182.5 122t223 45.5q223 0 383 -150l-155 -150q-93 89 -228 89q-147 0 -251 -106t-104 -256q0 -149 104 -255t251 -106q80 0 143.5 26 t99.5 66.5t55.5 79.5t25.5 75h-324v196zM1900 1000v-164h-164v-163h-163v163h-164v164h164v164h163v-164h164z" />
<glyph unicode="&#xf463;" d="M1020 1672q173 0 323.5 -79t247.5 -216t121 -305h208l-350 -400l-350 400h232q-34 149 -154.5 247t-277.5 98q-106 0 -199 -48t-155 -130l-171 195q98 112 234.5 175t290.5 63zM980 328q-130 0 -249.5 46.5t-210.5 126.5t-152.5 190.5t-79.5 236.5h-208l350 400 q59 -67 175.5 -200t174.5 -200h-232q34 -149 154.5 -247t277.5 -98q106 0 199 48t155 130l171 -195q-98 -112 -234 -175t-291 -63z" />
<glyph unicode="&#xf464;" d="M1389 1661l271 -272q34 -35 33.5 -84t-30.5 -80l-801 -802l-556 -116l116 558q760 763 799 803q29 30 81.5 28.5t86.5 -35.5zM1116 1382l-559 -561l111 -111l554 565zM819 559l558 560l-107 108l-559 -560z" />
<glyph unicode="&#xf465;" d="M387 1600h1325q188 0 188 -179v-842q0 -179 -188 -179h-1325q-188 0 -188 179v842q0 179 188 179zM1049 740l674 553q21 17 27 45.5t-14 61.5q-21 30 -56.5 33.5t-60.5 -16.5l-570 -386l-569 386q-25 20 -60.5 16.5t-56.5 -33.5q-20 -33 -14 -61.5t27 -45.5z" />
<glyph unicode="&#xf466;" d="M1900 550v900q0 62 -44 106t-106 44h-1401q-62 0 -106 -44t-44 -106v-900q0 -62 44 -106t106 -44h1401q62 0 106 44t44 106zM1769 1461q15 -15 17.5 -32.5t-4 -29.5t-16.5 -22l-406 -372l390 -406q26 -30 6 -51q-9 -11 -28 -12t-28 7l-437 373l-214 -195l-213 195 l-437 -373q-9 -8 -28 -7t-28 12q-20 21 6 51l390 406l-406 372q-10 10 -16.5 22t-4 29.5t17.5 32.5q40 40 95 -7l624 -504l625 504q55 47 95 7z" />
<glyph unicode="&#xf467;" d="M1801 882v867q0 89 -59 129.5t-141 7.5l-1201 -477q-83 -33 -141.5 -120t-58.5 -177v-866q0 -90 58.5 -130t141.5 -7l1201 477q83 33 141.5 119.5t58.5 176.5zM1658 1628l-604 -933l-665 460q-7 5 -13 12.5t-10.5 22t6.5 29.5q9 16 25.5 21.5t28.5 2.5l11 -3l630 -232 q483 634 511 670q12 15 30 20.5t43 -7.5q33 -23 7 -63z" />
<glyph unicode="&#xf468;" d="M1800 1000q0 163 -63.5 311t-170.5 255t-255 170.5t-311 63.5t-311 -63.5t-255 -170.5t-170.5 -255t-63.5 -311t63.5 -311t170.5 -255t255 -170.5t311 -63.5t311 63.5t255 170.5t170.5 255t63.5 311zM723 1643l149 -373q-97 -45 -142 -142l-373 149q53 123 148 218 t218 148zM1643 1277l-373 -149q-45 97 -142 142l149 373q123 -53 218 -148t148 -218zM1000 800q-82 0 -141 59t-59 141t59 141t141 59t141 -59t59 -141t-59 -141t-141 -59zM357 723l373 149q45 -97 142 -142l-149 -373q-123 53 -218 148t-148 218zM1277 357l-149 373 q97 45 142 142l373 -149q-53 -123 -148 -218t-218 -148z" />
<glyph unicode="&#xf469;" d="M1000 1800q163 0 311 -63.5t255 -170.5t170.5 -255t63.5 -311t-63.5 -311t-170.5 -255t-255 -170.5t-311 -63.5t-311 63.5t-255 170.5t-170.5 255t-63.5 311t63.5 311t170.5 255t255 170.5t311 63.5zM1000 400q163 0 301 80.5t218.5 218.5t80.5 301t-80.5 301 t-218.5 218.5t-301 80.5t-301 -80.5t-218.5 -218.5t-80.5 -301t80.5 -301t218.5 -218.5t301 -80.5zM929 929q14 -10 23 -15l-2 -2l450 -212l-303 319l-97 481l-97 -481h1q0 -1 -2 -9t-2 -10q0 -42 29 -71z" />
<glyph unicode="&#xf470;" d="M600 1800h800q41 0 70.5 -29.5t29.5 -70.5v-1400q0 -41 -29.5 -70.5t-70.5 -29.5h-800q-41 0 -70.5 29.5t-29.5 70.5v1400q0 41 29.5 70.5t70.5 29.5zM1300 600v1000h-600v-1000h600zM800 1500h400l-400 -500v500z" />
<glyph unicode="&#xf471;" d="M400 1800h1200q41 0 70.5 -29.5t29.5 -70.5v-1400q0 -41 -29.5 -70.5t-70.5 -29.5h-1200q-41 0 -70.5 29.5t-29.5 70.5v1400q0 41 29.5 70.5t70.5 29.5zM1500 400v1200h-1000v-1200h1000zM600 1500h600l-600 -500v500z" />
<glyph unicode="&#xf472;" d="M300 1800h1400q41 0 70.5 -29.5t29.5 -70.5v-1000q0 -41 -29.5 -70.5t-70.5 -29.5h-500v-200h200q41 0 70.5 -29.5t29.5 -70.5v-100h-1000v100q0 41 29.5 70.5t70.5 29.5h200v200h-500q-41 0 -70.5 29.5t-29.5 70.5v1000q0 41 29.5 70.5t70.5 29.5zM1600 900v700h-1200 v-700h1200zM500 1500h900l-900 -400v400z" />
<glyph unicode="&#xf473;" d="M400 1700h1200q82 0 141 -59t59 -141v-700q0 -82 -59 -141t-141 -59h-100l-500 -500v500h-600q-82 0 -141 59t-59 141v700q0 82 59 141t141 59zM1500 1500h-1100v-100h1100v100zM1600 1200h-1200v-100h1200v100zM1300 900h-900v-100h900v100z" />
<glyph unicode="&#xf474;" d="M1600 1600h200v-900h-1100v-300l-500 400l500 400v-300h900v700z" />
<glyph unicode="&#xf475;" d="M900 1400l-400 -400l400 -400l-100 -200l-600 600l600 600zM1100 600l400 400l-400 400l100 200l600 -600l-600 -600z" />
<glyph unicode="&#xf476;" d="M1500 1800h-746q-124 0 -228 -60q-105 -62 -165 -165q-61 -103 -61 -227t61 -227q60 -104 165 -164q103 -61 228 -61h43v-596q0 -40 29 -71q31 -29 71 -29t71 29q30 30 30 71v1200q0 42 29 71q31 29 71 29t71 -29q29 -31 29 -71v-1200q0 -41 30 -71q31 -29 71 -29t71 29 q29 31 29 71v1300h101q40 0 70 30q30 28 30 70q0 41 -30 71q-31 29 -70 29z" />
<glyph unicode="&#xf477;" d="M1000 1800q162 0 310.5 -63.5t255.5 -170.5t170.5 -255.5t63.5 -310.5t-63.5 -310.5t-170.5 -255.5t-255.5 -170.5t-310.5 -63.5t-310.5 63.5t-255.5 170.5t-170.5 255.5t-63.5 310.5t63.5 310.5t170.5 255.5t255.5 170.5t310.5 63.5zM1000 250q153 0 291.5 59.5t239 160 t160 239t59.5 291.5t-59.5 291.5t-160 239t-239 160t-291.5 59.5t-291.5 -59.5t-239 -160t-160 -239t-59.5 -291.5q0 -223 122 -410q41 -61 95 -117q104 -105 242 -164t291 -59zM1000 1674q137 0 262 -53.5t215 -143.5t143.5 -215t53.5 -262t-53.5 -262t-143.5 -215 t-215 -143.5t-262 -53.5q-206 0 -374 113q78 4 151 42t126 99q20 -58 80 -100t151 -42q130 0 240.5 88t136.5 212q29 127 -28 213t-182 86q-45 0 -96 -21t-90 -52l104 479q2 14 -3.5 21.5t-18.5 3.5q-56 -15 -227 -32q-18 -2 -24.5 -17t2 -29t26.5 -13q22 1 34.5 -1 t20.5 -10.5t10 -20t-1 -34.5t-8.5 -50t-14.5 -70q-1 -3 -1 -4l-54 -243q-57 93 -186 93q-46 0 -96.5 -21t-89.5 -52q100 461 103 479q3 13 -2.5 21t-18.5 4q-42 -11 -179 -26q94 109 226.5 170.5t282.5 61.5zM441 1377h6q26 1 39.5 -3t20.5 -15.5t5.5 -32.5t-8 -54.5 t-17.5 -81.5q-1 -2 -1 -3l-101 -463q-59 130 -59 276q0 207 115 377zM853 738q-23 -104 -82.5 -172t-143.5 -68q-55 0 -89 41t-17 116l34 167q15 64 69.5 107t114.5 43q82 0 109.5 -65t4.5 -169zM1380 738q-22 -104 -82 -172t-144 -68q-55 0 -89 41t-17 116l35 167 q15 64 69 107t114 43q82 0 109.5 -65t4.5 -169z" />
<glyph unicode="&#xf478;" d="M1800 1700v-200h-1600v200h1600zM1200 1300v-200h-1000v200h1000zM1800 1300v-200h-400v200h400zM800 900v-200h-600v200h600zM1800 900v-200h-800v200h800zM1400 500v-200h-1200v200h1200z" />
<glyph unicode="&#xf479;" d="M1100 1700v-400h-1000v400h1000zM1900 1700v-400h-700v400h700zM700 1200v-300h-600v300h600zM1900 1200v-300h-1100v300h1100zM900 800v-200h-800v200h800zM1900 800v-200h-900v200h900zM600 500v-100h-500v100h500zM1100 500v-100h-400v100h400zM1400 500v-100h-200 v100h200zM1900 500v-100h-400v100h400z" />
<glyph unicode="&#xf480;" d="M1900 1600v-200h-1800v200h1800zM200 1300h1600v-1000h-1600v1000zM1300 1000v100h-600v-100h600z" />
<glyph unicode="&#xf481;" d="M1190 1961l140 -140q50 -6 123.5 1.5t127 15t113 -4t97.5 -49.5t49.5 -97.5t4 -113t-15 -127t-1.5 -123.5l140 -140q29 -29 29 -70.5t-29 -70.5l-919 -920q-30 -29 -71.5 -29t-70.5 29l-778 778q-29 29 -29 70.5t29 71.5l920 919q29 29 70.5 29t70.5 -29zM1248 1736 l-58 -58l495 -495l58 58q-24 75 -15 182q3 47 9 92q11 73 9 123.5t-26 74.5t-74.5 26t-123.5 -9q-45 -6 -92 -9q-107 -9 -182 15zM1650 1643q29 -29 29 -71t-29 -71t-71 -29t-71 29t-29 71t29 71t71 29t71 -29zM978 1607l-71 -70l637 -637l70 71zM836 1466l-70 -71l636 -636 l71 70zM695 1324l-71 -70l637 -637l70 71zM554 1183l-71 -71l636 -636l71 71zM412 1042l-71 -71l637 -637l71 71z" />
<glyph unicode="&#xf482;" d="M1200 1100v600q0 83 -58.5 141.5t-141.5 58.5t-141.5 -59.5t-58.5 -140.5v-600q0 -82 59 -141t141 -59q84 0 142 59.5t58 140.5zM1600 1100q0 -221 -142.5 -388t-357.5 -203v-209h200q42 0 71 -29.5t29 -70.5t-29 -70.5t-71 -29.5h-600q-41 0 -70.5 29.5t-29.5 70.5 t29.5 70.5t70.5 29.5h200v209q-214 36 -357 203t-143 388q0 41 29.5 70.5t70.5 29.5q42 0 71 -29.5t29 -70.5q0 -166 117.5 -283t282.5 -117q166 0 283 117t117 283q0 41 29.5 70.5t70.5 29.5q42 0 71 -29.5t29 -70.5z" />
<glyph unicode="&#xf483;" d="M1000 1740q62 0 106 -44t44 -106t-44 -106.5t-106 -44.5t-106 44.5t-44 106.5t44 106t106 44zM340 1264q0 29 165 48t330 24l165 4q660 -11 660 -76q0 -29 -112 -64t-224 -56l-111 -20l59 -306q91 -515 47 -532q-17 -7 -56.5 44t-83 128.5t-84.5 156t-68 134.5l-27 56 l-96 -193q-177 -342 -222 -326q-17 14 -13 96.5t23 209t40.5 244.5t38.5 203l17 85q-448 75 -448 140z" />
<glyph unicode="&#xf484;" d="M1200 1500v300q0 41 -29.5 70.5t-70.5 29.5h-200q-41 0 -70.5 -29.5t-29.5 -70.5v-300q0 -41 29.5 -70.5t70.5 -29.5h200q41 0 70.5 29.5t29.5 70.5zM1000 1800q41 0 70.5 -29.5t29.5 -70.5t-29.5 -70.5t-70.5 -29.5t-70.5 29.5t-29.5 70.5t29.5 70.5t70.5 29.5z M1800 500v800q0 82 -59 141t-141 59h-300v-33q0 -69 -49 -118t-118 -49h-266q-69 0 -118 49t-49 118v33h-300q-82 0 -141 -59t-59 -141v-800q0 -82 59 -141t141 -59h1200q82 0 141 59t59 141zM1700 1100v-600h-1400v600h1400zM900 900q0 41 -14.5 70.5t-35.5 29.5 t-35.5 -29.5t-14.5 -70.5t14.5 -70.5t35.5 -29.5t35.5 29.5t14.5 70.5zM1200 900q0 41 -14.5 70.5t-35.5 29.5t-35.5 -29.5t-14.5 -70.5t14.5 -70.5t35.5 -29.5t35.5 29.5t14.5 70.5zM604 779q151 -79 396 -79t396 79q-16 -76 -129 -127.5t-267 -51.5t-267 51.5t-129 127.5z " />
<glyph unicode="&#xf485;" d="M19 1408q-22 -18 79 -142t212 -240l112 -115l79 79t184.5 185.5t249.5 256.5t232.5 247t179 206t45.5 89q-30 17 -274 -166.5t-474 -375.5l-229 -191q-4 3 -11.5 7t-32.5 18.5t-47.5 26.5t-57 30.5t-61.5 31t-61 27.5t-55 21t-43.5 10t-26.5 -5zM1542 1310l-315 -315 l-181 182l315 315q25 25 69.5 16t81.5 -47q38 -37 47 -81.5t-17 -69.5zM765 1138l88 109l876 -875l-116 -81q-49 -49 -163 -81t-208 -32h-377l-121 -121q-43 -43 -103 -43t-103 43t-43 103t43 104l121 120v376q0 94 29.5 212.5t76.5 165.5zM1470 752l315 315q25 26 69.5 17 t81.5 -47q38 -37 47 -81t-17 -69l-315 -316z" />
<glyph unicode="&#xf486;" d="M2000 1462l-101 -282v1q-78 28 -153 -8t-104 -114q-28 -78 7.5 -153t114.5 -103v-1l-101 -282l-1506 538l99 279q78 -28 153 7.5t103 113.5t-7.5 152.5t-113.5 102.5l102 287zM1455 1125q34 108 16.5 208.5t-87 183.5t-171.5 120q-156 55 -305.5 -16t-205.5 -226 q-34 -108 -16.5 -209t87 -184t171.5 -119q155 -55 305 16t206 226zM1199 1599q133 -48 197 -171l-4 2q-24 9 -46.5 -3.5t-31.5 -36.5q-10 -28 5 -91q9 -62 -6 -104q-9 -27 -65 -100l-74 -101l8 408l40 -11q14 -3 18 11t-10 18q-57 15 -92 28l-88 36q-7 3 -12 0t-7.5 -7.5 t-0.5 -10.5t8 -9q16 -8 34 -16l1 -163l-153 -196l8 411l40 -11q14 -3 17.5 11t-10.5 18q-56 15 -91 28q-3 1 -22 8q71 54 159 68t178 -16zM740 1381q25 73 78 127l4 -500q-72 72 -94.5 171.5t12.5 201.5zM1144 906l210 263q49 55 69 112q4 10 11 35q14 -90 -17 -177 q-33 -92 -106.5 -153.5t-166.5 -79.5zM1074 1228l2 -322q0 -4 1 -6q-60 0 -120 21q-49 18 -90 48zM1198 620l210 -75q18 -64 71 -104.5t120 -40.5h1v-300h-1600v296q83 0 141.5 58.5t58.5 141.5q0 82 -59 141t-141 59v304h105l-28 -80l428 -152q-105 -115 -105 -268 q0 -166 117 -283t283 -117t283 117t117 283q0 4 -1 10t-1 10zM545 853l148 -53q-11 -3 -10.5 -15t13.5 -13q18 -2 37 -3l56 -154l-78 -236l-131 390l41 3q9 1 12 8.5t-1 14.5t-13 7q-59 -5 -96 -5q-15 0 -23 1q19 29 45 55zM440 600q0 76 32 146l171 -470q-92 45 -147.5 132 t-55.5 192zM859 741l172 -62q12 -29 12 -61q0 -28 -28 -116l-35 -120zM1160 600q0 -98 -48.5 -181t-130.5 -130l110 318q7 20 14 46l52 -19q3 -17 3 -34zM698 255l108 314l111 -303q0 -1 0.5 -2.5t1.5 -2.5q-60 -21 -119 -21q-47 0 -102 15z" />
<glyph unicode="&#xf487;" d="M1000 288q240 101 420.5 265.5t283.5 355.5q97 183 106.5 349t-74.5 276q-144 181 -373 174q-99 -3 -194 -42.5t-169 -103.5q-74 64 -169 103.5t-194 42.5q-229 7 -373 -174q-84 -110 -74.5 -276t108.5 -349q101 -191 281.5 -355.5t420.5 -265.5z" />
<glyph unicode="&#xf488;" d="M1815 1406q66 -233 -2 -448q-31 -96 -91.5 -160.5t-138.5 -87.5q-16 -6 -40 -6q-6 -2 -18 -2q-6 -2 -22 -2h-680l222 -550q3 -18 -14 -34q-13 -16 -34 -16h-302q-21 0 -34 16q-17 17 -14 34l-100 550h-122l-2 2q-37 -4 -78 12.5t-76 49.5q-81 78 -106 188q-33 110 -2 220 q27 94 106 130l2 2l900 540q20 12 24 16q9 6 24 12q19 10 50 18q77 22 162 -4.5t160 -93.5q76 -68 135.5 -168t90.5 -218zM1557 808h-2q58 14 104 70q86 104 86 304q0 92 -28 198q-50 199 -178 324q-58 56 -123 80t-123 8q-122 -33 -170 -200q-48 -156 6 -372 q59 -212 180 -324q126 -119 248 -88zM1303 1516q30 6 62 -4q66 -28 102 -100q42 -84 42 -178q0 -44 -12 -80q-30 -81 -86 -94q-26 -8 -57.5 3.5t-56.5 36.5q-58 58 -78 150q-24 83 2 172q10 35 33 60.5t49 33.5z" />
<glyph unicode="&#xf489;" d="M200 1800h1600v-400h-1600v400zM200 800v400h400v-400h-400zM800 1000v200h400v-200h-400zM1400 700v500h400v-500h-400zM800 200v600h400v-600h-400zM200 200v400h400v-400h-400zM1400 200v300h400v-300h-400z" />
<glyph unicode="&#xf490;" d="M1200 1800l400 -400v-1200h-1200v1600h800zM1200 1400h300l-300 300v-300zM1100 600v300q0 40 -29 71q-31 29 -71 29h-300q-40 0 -71 -29q-29 -31 -29 -71v-300q0 -40 29 -71q31 -29 71 -29h300q40 0 71 29q29 31 29 71zM1400 500v500l-200 -200v-100z" />
<glyph unicode="&#xf491;" d="M1200 1800l400 -400v-1200h-1200v1600h800zM500 1700v-100h600v100h-600zM1200 1400h300l-300 300v-300zM500 1500v-100h600v100h-600zM1500 1200v100h-1000v-100h1000zM1500 1000v100h-1000v-100h1000zM1500 800v100h-1000v-100h1000zM1100 600v100h-600v-100h600z" />
<glyph unicode="&#xf492;" d="M1700 1700v200h-1500v-200h1500zM1700 1300v200h-1500v-200h1500zM1000 900v200h-800v-200h800zM1745 1096l-600 -112q-18 -2 -29 -13q-16 -13 -16 -37v-459q-31 14 -93 14q-81 0 -138 -57q-56 -56 -56 -138q0 -81 56 -137q57 -57 138 -57q73 0 129 48q56 49 65 119v495 l499 111v-348q-42 19 -83 19q-92 0 -149 -57q-57 -56 -57 -137q0 -80 57 -137t138 -57q80 0 137 57t57 137v690q0 25 -16 41q-16 18 -39 15zM800 500v200h-600v-200h600zM600 100v200h-400v-200h400z" />
<glyph unicode="&#xf493;" d="M1700 1700v200h-1500v-200h1500zM1700 1300v200h-1500v-200h1500zM600 900v200h-400v-200h400zM800 1100h900q41 0 70.5 -29.5t29.5 -70.5v-800q0 -41 -29.5 -70.5t-70.5 -29.5h-900q-41 0 -70.5 29.5t-29.5 70.5v800q0 41 29.5 70.5t70.5 29.5zM1100 400l333 200 l-333 200v-400zM600 500v200h-400v-200h400zM600 100v200h-400v-200h400z" />
<glyph unicode="&#xf494;" d="M900 1400l-400 -400l400 -400l-100 -200l-600 600l600 600zM1100 600l400 400l-400 400l100 200l600 -600l-600 -600z" />
<glyph unicode="&#xf495;" d="M1200 1800l400 -400v-1200h-1200v1600h800zM1100 1400v300h-600v-300h600zM800 1200v100h-300v-100h300zM1100 1200v100h-200v-100h200zM1500 1200v100h-300v-100h300zM800 1000v100h-300v-100h300zM1100 1000v100h-200v-100h200zM1500 1000v100h-300v-100h300zM800 800 v100h-300v-100h300zM1100 800v100h-200v-100h200zM1500 800v100h-300v-100h300zM800 600v100h-300v-100h300zM1100 600v100h-200v-100h200zM1500 600v100h-300v-100h300zM800 400v100h-300v-100h300zM1100 400v100h-200v-100h200z" />
<glyph unicode="&#xf496;" d="M1200 1800l400 -400v-1200h-1200v1600h800zM1200 1400h300l-300 300v-300zM1400 600v600h-800v-600h300l-100 -200h100l100 200l100 -200h100l-100 200h300zM800 900q-41 0 -70.5 29.5t-29.5 70.5t29.5 70.5t70.5 29.5t70.5 -29.5t29.5 -70.5t-29.5 -70.5t-70.5 -29.5z M1300 1100v-200h-300v200h300zM1300 800v-100h-600v100h600z" />
<glyph unicode="&#xf497;" d="M1200 1800l400 -400v-1200h-1200v1600h800zM500 1700v-100h600v100h-600zM1200 1400h300l-300 300v-300zM500 1500v-100h600v100h-600zM1500 1200v100h-1000v-100h1000zM500 1100v-100h400v100h-400zM1500 800v300h-500v-300h500zM500 900v-100h400v100h-400zM1500 600 v100h-1000v-100h1000zM1200 400v100h-700v-100h700z" />
<glyph unicode="&#xf498;" d="M1200 1800l400 -400v-1200h-1200v1600h800zM1200 1400h300l-300 300v-300z" />
<glyph unicode="&#xf499;" d="M1200 1800l400 -400v-1200h-1200v1600h800zM900 700l-200 200l200 200l-100 100l-300 -300l300 -300zM1200 600l300 300l-300 300l-100 -100l200 -200l-200 -200z" />
<glyph unicode="&#xf500;" d="M1200 1800l400 -400v-1200h-1200v1600h800zM1200 1400h300l-300 300v-300zM1300 674v517q0 17 -12 29q-10 12 -27 10q-397 -71 -425 -78q-36 -7 -36 -52v-337q-16 7 -60 7q-57 0 -96 -39q-40 -42 -40 -96q0 -55 40 -95q39 -40 96 -40q65 0 96 26q64 57 64 112v332l300 60 v-230q-87 26 -144 -31q-39 -39 -39 -95t39 -96q40 -39 108 -39q57 0 96 39q40 42 40 96z" />
<glyph unicode="&#xf501;" d="M1200 1800l400 -400v-1200h-1200v1600h800zM1200 1400h300l-300 300v-300zM800 1650v-200l180 100zM1100 1500l-180 -100l180 -100v200zM800 1350v-200l180 100zM1100 1200l-180 -100l180 -100v200zM800 1050v-200l180 100zM1100 900l-180 -100l180 -100v200zM950 300 q64 0 111.5 48.5t38.5 114.5q-2 17 -14.5 57t-23.5 72l-11 32l-199 110q-45 -195 -52 -271q-5 -59 42 -111t108 -52zM950 539q32 0 54 -22.5t22 -53.5q0 -32 -22 -54.5t-54 -22.5t-54 22.5t-22 54.5q0 31 22 53.5t54 22.5z" />
<glyph unicode="&#xf502;" d="M1580 1580q157 -158 213 -369t0 -422t-213 -369q-158 -157 -369 -213t-422 0t-369 213q-157 158 -213 369t0 422t213 369q158 157 369 213t422 0t369 -213zM1150 450v400h400v300h-400v400h-300v-400h-400v-300h400v-400h300z" />
<glyph unicode="&#xf503;" d="M1800 1399l-400 -299v200h-400l-500 -800h-300v200h200l500 800h500v200zM200 1500h300l115 -217l-112 -180l-103 197h-200v200zM1800 599l-400 -299v200h-500l-115 217l112 180l103 -197h400v200z" />
<glyph unicode="&#xf504;" d="M900 1700h800v-800l-200 100v308l-560 -559l-141 141l609 610h-408zM1200 500v300l200 200v-700h-1100v1100h800l-200 -200h-400v-700h700z" />
<glyph unicode="&#xf506;" d="M1575 1325l225 375v-1400l-225 375l125 125h-400v-400l125 125l375 -225h-1600l375 225l125 -125v400h-400l125 -125l-225 -375v1400l225 -375l-125 -125h400v400l-125 -125l-375 225h1600l-375 -225l-125 125v-400h400z" />
<glyph unicode="&#xf507;" d="M1900 1000q0 183 -71.5 349.5t-192 287t-287 192t-349.5 71.5t-349.5 -71.5t-287 -192t-192 -287t-71.5 -349.5t71.5 -349.5t192 -287t287 -192t349.5 -71.5t349.5 71.5t287 192t192 287t71.5 349.5zM1000 1740q62 0 106 -44t44 -106t-44 -106.5t-106 -44.5t-106 44.5 t-44 106.5t44 106t106 44zM340 1264q0 29 165 48t330 24l165 4q660 -11 660 -76q0 -29 -112 -64t-224 -56l-111 -20l59 -306q91 -515 47 -532q-17 -7 -56.5 44t-83 128.5t-84.5 156t-68 134.5l-27 56l-96 -193q-177 -342 -222 -326q-17 14 -13 96.5t23 209t40.5 244.5 t38.5 203l17 85q-448 75 -448 140z" />
<glyph unicode="&#xf508;" d="M1500 1700h300v-1500h-1600v1500h300v100q0 60 44 106q44 44 106 44t106 -44q44 -46 44 -106v-100h400v100q0 60 44 106q44 44 106 44t106 -44q44 -46 44 -106v-100zM600 1800v-250q0 -21 15 -36q14 -14 35 -14t35 14q15 15 15 36v250q0 22 -15 35q-13 15 -35 15t-35 -15 q-15 -13 -15 -35zM1300 1800v-250q0 -20 14 -36q16 -14 36 -14t36 14q14 16 14 36v250q0 21 -14 35q-15 15 -36 15t-36 -15q-14 -14 -14 -35zM1700 300v1000h-1400v-1000h1400zM700 1200v-200h-200v200h200zM900 1200h200v-200h-200v200zM1300 1000v200h200v-200h-200z M700 900v-200h-200v200h200zM900 900h200v-200h-200v200zM1300 700v200h200v-200h-200zM700 600v-200h-200v200h200zM1100 400h-200v200h200v-200zM1500 400h-200v200h200v-200z" />
<glyph unicode="&#xf509;" d="M200 1900h1600q41 0 70.5 -29.5t29.5 -70.5v-1600q0 -41 -29.5 -70.5t-70.5 -29.5h-1600q-41 0 -70.5 29.5t-29.5 70.5v1600q0 41 29.5 70.5t70.5 29.5zM901 1101v600h-601v-600h601zM1701 1101v600h-600v-600h600zM901 300v600h-601v-600h601zM1701 300v600h-600v-600 h600z" />
<glyph unicode="&#xf510;" d="M100 1683v-1483h1800v1400h-1100v83q0 48 -35 83q-34 34 -83 34h-464q-49 0 -83 -34q-35 -34 -35 -83zM1000 1400v-200h-700v200h700zM1700 1400v-1000h-500v1000h500zM1000 1000v-200h-700v200h700zM1000 600v-200h-700v200h700z" />
<glyph unicode="&#xf511;" d="M200 157q28 -27 94 -18.5t154 38t194.5 81.5t215 113t215 131.5t194.5 136.5t154 129.5t93 109.5q36 60 23.5 137.5t-58 155t-117.5 151.5q32 21 66.5 21t64.5 -17.5t62.5 -41.5t61 -50.5t59.5 -46t58 -26.5t57 8q46 24 68.5 85.5t1.5 106.5q-12 26 -36.5 45.5 t-47.5 30.5t-64 20t-63 12t-70 7.5t-61 5.5q36 9 80 27.5t92 47t80.5 68.5t33.5 82q3 69 -66.5 131.5t-138.5 54.5q-25 -3 -47 -14t-40 -32.5t-31.5 -41t-27.5 -53t-22 -52.5t-20.5 -56.5t-17.5 -50.5q-16 223 -98 295q-55 43 -106 38t-88 -46.5t-38 -96.5q-1 -31 19 -62.5 t49 -56t60.5 -54.5t53 -57t27 -63.5t-16.5 -73.5q-78 60 -157.5 96.5t-155.5 44t-133 -26.5q-70 -45 -163 -169q168 -178 309 -272q15 -11 18.5 -29t-7.5 -33q-10 -16 -28.5 -19.5t-33.5 7.5q-138 94 -310 271q-71 -105 -134 -223q157 -158 279 -241q15 -11 18 -29t-7 -33 q-10 -16 -28.5 -19.5t-34.5 7.5q-117 80 -271 232q-143 -282 -212 -524t-5 -299z" />
<glyph unicode="&#xf512;" d="M300 0h1400v2000h-1400v-2000zM700 1700h-200v200h200v-200zM1100 1700h-200v200h200v-200zM1500 1700h-200v200h200v-200zM700 1400h-200v200h200v-200zM1100 1400h-200v200h200v-200zM1500 1400h-200v200h200v-200zM700 1100h-200v200h200v-200zM1100 1100h-200v200 h200v-200zM1500 1100h-200v200h200v-200zM700 800h-200v200h200v-200zM1100 800h-200v200h200v-200zM1500 800h-200v200h200v-200zM1100 100h-600v600h600v-600zM1500 500h-200v200h200v-200zM1500 200h-200v200h200v-200z" />
<glyph unicode="&#xf513;" d="M100 1000q61 -43 150 -43t150 43q100 74 100 200q0 -127 100 -200q61 -43 150 -43t150 43q100 74 100 200q0 -127 100 -200q61 -43 151 -43q88 0 149 43q100 74 100 200q0 -127 100 -200q61 -43 150 -43t150 43q100 73 100 200v100l-300 700h-1300l-400 -700v-100 q0 -127 100 -200zM300 101h500v500h400v-500h500v700q-52 7 -100 43q-38 27 -55.5 43t-31 44.5t-13.5 68.5q0 -30 -6 -52t-22 -41t-29.5 -30.5t-42.5 -32.5q-58 -42 -149 -44q-91 0 -151 44q-38 27 -55.5 43t-31 44.5t-13.5 68.5q0 -30 -6 -52t-22 -41t-29.5 -30.5 t-42.5 -32.5q-58 -42 -150 -44q-90 0 -150 44q-38 27 -55.5 43t-31 45t-13.5 69q0 -31 -6 -53t-22 -41t-29.5 -30.5t-42.5 -32.5q-49 -36 -100 -44v-699z" />
<glyph unicode="&#xf514;" d="M0 200h1000v26q241 -63 476 24q122 45 222.5 125t167.5 183t102.5 221t31.5 246.5t-49 250.5q-42 115 -116 211t-167.5 161.5t-204.5 106t-227 44t-236 -24.5v26h-1000v-1600zM900 1700v-1400h-800v1400h800zM1445 878q-51 -101 -158.5 -137t-208.5 14q-46 22 -78 59v373 q61 65 149.5 82t172.5 -24q101 -51 137 -158.5t-14 -208.5zM1170 960q16 -12 36.5 -9t33.5 19q12 16 9 36.5t-19 33.5q-17 13 -37 10t-33 -20q-12 -16 -9 -36.5t19 -33.5zM1471 593q-86 -57 -187.5 -75t-195.5 6q-20 5 -31 23t-6 38t23 30.5t39 5.5l17 -4q155 -27 286 59 q72 49 114 118q11 17 31 21.5t38 -5.5q17 -11 22 -31.5t-6 -37.5q-57 -90 -144 -148zM1576 436q-109 -73 -234 -99.5t-250 -6.5q-21 4 -33 21.5t-8 38.5q4 20 21.5 31.5t39.5 7.5l22 -4q211 -24 387 94q101 67 170 174q10 18 30.5 22.5t37.5 -6.5q18 -10 22.5 -30.5 t-6.5 -38.5q-76 -122 -199 -204z" />
<glyph unicode="&#xf515;" d="M500 1300v-300l-200 -150v650h1100v200l400 -301l-400 -299v200h-900zM1500 700v300l200 150v-650h-1100v-200l-400 301l400 299v-200h900z" />
<glyph unicode="&#xf516;" d="M1198 1237l600 360v-1200l-600 360v-360l-800 480v-480h-200v1200h200v-480l800 480v-360z" />
<glyph unicode="&#xf517;" d="M800 760l-600 -360v1200l600 -360v360l800 -480v480h200v-1200h-200v480l-800 -480v360z" />
<glyph unicode="&#xf518;" d="M200 1000l1000 600v-360l600 360v-1200l-600 360v-360z" />
<glyph unicode="&#xf519;" d="M1800 1000l-1000 -600v360l-600 -360v1200l600 -360v360z" />
<glyph unicode="&#xf520;" d="M200 1300h400l500 400v-1400l-500 400h-400v600z" />
<glyph unicode="&#xf521;" d="M200 1300h400l500 400v-1400l-500 400h-400v600zM1469 1546q8 -3 22.5 -10t48 -29t65.5 -49.5t68.5 -73t63.5 -98.5t45 -128t18 -158t-18 -158t-45 -128t-63.5 -98.5t-68.5 -73t-65.5 -49.5t-48 -29t-22.5 -10q-8 -4 -19 -4q-35 0 -46 31q-8 19 0 38t27 27q10 5 19 9 t38.5 23.5t53.5 41.5t55 60.5t52 82t36 106t15 131.5q0 96 -28.5 178t-65 129.5t-80 84t-65.5 48t-30 14.5q-19 8 -27 27t0 38t27 27t38 0zM1600 1000q0 -70 -23.5 -131.5t-50 -96t-68.5 -65.5t-55 -37.5t-34 -15.5l-1 -1q-9 -3 -18 -3q-34 0 -47 32q-7 19 1.5 38t27.5 27 q6 2 20.5 9t41.5 27.5t49.5 47.5t39.5 72t17 97t-17 97t-39.5 72t-49.5 47.5t-41.5 27.5t-20.5 9q-19 8 -27.5 27t-1.5 38q8 19 27 27.5t38 1.5q145 -64 202 -195q30 -70 30 -152z" />
<glyph unicode="&#xf522;" d="M500 1600l1000 -600l-1000 -600v1200z" />
<glyph unicode="&#xf523;" d="M500 400v1200h300v-1200h-300zM1200 1600h300v-1200h-300v1200z" />
<glyph unicode="&#xf524;" d="M2000 1362l-101 -282v1q-77 28 -153 -8t-104 -114q-28 -77 7 -153q36 -75 115 -103v-1l-101 -282l-1506 538l99 279q77 -28 153 8q74 34 103 113q28 77 -8 153q-34 73 -113 102l102 287zM1503 793l137 376q18 47 -4 95q-22 46 -70 65l-752 273q-48 17 -95.5 -5t-64.5 -69 l-137 -376q-18 -49 4 -96t70 -64l752 -274q22 -8 43 -8q39 0 71.5 23t45.5 60zM797 1555l751 -273q29 -11 43 -39q13 -28 2 -57l-137 -376q-10 -28 -38.5 -42t-57.5 -3l-751 274q-29 10 -42.5 38.5t-2.5 57.5l137 376q7 22 27 35.5t43 13.5q11 0 26 -5zM1479 341 q53 -41 120 -41h1v-300h-1600v296q84 0 141 59q59 57 59 141q0 82 -59 141t-141 59v304h105l-28 -80l287 -102q-39 -12 -64 -44.5t-25 -73.5v-400q0 -52 36.5 -88.5t88.5 -36.5h800q52 0 88.5 36.5t36.5 88.5v175l83 -30q18 -65 71 -104zM325 300v400q0 31 22 53t53 22h83 l792 -283v-192q0 -31 -22 -53t-53 -22h-800q-31 0 -53 22t-22 53z" />
<glyph unicode="&#xf525;" d="M1206 1400l-21 20q-26 27 -32 47t3.5 38t36.5 45l272 275q11 11 27.5 28.5t23.5 24.5t19 17.5t18.5 12t17 3.5t19.5 -3t21 -13t27 -22l21 -20zM1259 1355l440 440q21 -28 41.5 -59.5t47 -78t45 -95t31 -100t10 -104t-21.5 -97.5q-33 -76 -59 -117.5t-69.5 -93 t-71.5 -89.5q-226 -257 -600 -607q-41 -29 -90 -72.5t-91.5 -70.5t-118.5 -57q-43 -17 -95 -18t-103.5 12.5t-100.5 31.5t-97 44.5t-80 45.5t-62 40l440 440l118 -162q16 -23 48.5 -16.5t66 28.5t65.5 54q23 23 92.5 93t118 118.5t104.5 106.5t85 89q32 32 53.5 65t29 65.5 t-16.5 49.5zM157 350l-21 21q-15 16 -23.5 28t-9.5 24.5t-1 19.5t11 21t17 20.5t27 26.5t31 30l274 272q41 39 63.5 42.5t63.5 -31.5l20 -21z" />
<glyph unicode="&#xf526;" d="M0 1700h2000v-1200h-75q0 134 -95.5 229.5t-229.5 95.5q-96 0 -175 -52.5t-119 -138.5q-40 16 -81 16q-72 0 -129.5 -42t-81.5 -108h-1014v1200zM837 1389q-10 -24 -11 -47q-2 -27 1 -50l2 -8q3 -16 5 -23q2 -8 10 -31q3 -11 15 -33q9 -15 23 -31q13 -15 31 -23 q18 -9 40 -9q21 0 39 9q16 8 30 22q12 12 22 32q9 15 16 33q6 15 9 31q2 7 3 15l2 7q1 4 1 9q7 41 -4 82q-10 38 -41 66q-32 27 -79 27q-29 0 -52 -10q-24 -11 -38 -28q-12 -15 -24 -40zM1285 785v114q0 49 -29 98t-77 79q-47 31 -102 31l-124 -84l-128 82q-56 0 -104 -30 q-47 -30 -74 -77q-27 -48 -27 -99v-114l18 -5q1 0 51 -14q40 -9 74 -15q31 -6 91 -13q57 -5 99 -5q40 0 98 5q58 7 89 13q22 3 76 16l50 12q11 3 19 6zM1600 775q114 0 194.5 -80.5t80.5 -194.5t-80.5 -194.5t-194.5 -80.5q-107 0 -187 77q37 56 37 123q0 57 -26.5 106.5 t-72.5 79.5q33 74 100 119t149 45zM1050 425q0 72 51.5 123.5t123.5 51.5t123.5 -51.5t51.5 -123.5t-51.5 -123.5t-123.5 -51.5t-123.5 51.5t-51.5 123.5z" />
<glyph unicode="&#xf527;" d="M858 1761q47 0 81 -14q88 -39 128.5 -146.5t41.5 -250.5q56 77 156 153t185 76q41 0 80 -9.5t81.5 -34.5t78 -64t66 -102.5t47.5 -144.5q-163 94 -365 94q-198 0 -329 -89q58 16 133 16q111 0 207.5 -34.5t132.5 -96.5q34 -58 38.5 -140.5t-25.5 -160t-89 -113.5 q-7 104 -55.5 199t-127 154t-164.5 59q-67 0 -133 -38q-109 -66 -184 -214.5t-108.5 -339.5t-33.5 -420h-500q0 160 46.5 313t124 273.5t177.5 222t207 168.5t213 102q-93 15 -182 15q-321 0 -586 -194q28 107 78 188t114 128.5t133.5 70.5t143.5 23q93 0 178 -34.5 t142 -94.5q-24 80 -68.5 138.5t-101.5 89t-115.5 44.5t-122.5 14q-113 0 -205 -35q66 93 215 161t267 68zM1300 850q0 62 -44 106t-106 44t-106 -44t-44 -106t44 -106t106 -44t106 44t44 106z" />
<glyph unicode="&#xf528;" d="M1200 1100v300q0 82 -59 141t-141 59t-141 -59t-59 -141h-200q0 166 117 283t283 117t283 -117t117 -283v-300h100q41 0 70.5 -29.5t29.5 -70.5v-700q0 -41 -29.5 -70.5t-70.5 -29.5h-1000q-41 0 -70.5 29.5t-29.5 70.5v700q0 41 29.5 70.5t70.5 29.5h700zM1100 400 l-36 215q39 18 62.5 54.5t23.5 80.5q0 62 -44 106t-106 44t-106 -44t-44 -106q0 -44 23.5 -80.5t62.5 -54.5l-36 -215h200z" />
<glyph unicode="&#xf529;" d="M1272 1800q14 2 41 -7q42 -14 60.5 -53t5.5 -82q-2 -7 -16.5 -51.5t-26.5 -84t-26 -87.5t-22.5 -84t-8.5 -51q0 -38 44 -69t91 -31h300q45 0 72.5 -27.5t27.5 -72.5q0 -27 -50 -202t-100 -336l-50 -162q-16 -38 -43 -69t-57 -31h-914v900h214q29 29 182.5 256t175.5 271 q16 30 43 49.5t57 23.5zM200 1200h200v-900h-200v900z" />
<glyph unicode="&#xf530;" d="M1720 1670l16 -17q29 -29 29 -70.5t-29 -70.5l-1281 -1282q-29 -29 -71 -29t-70 29l-17 17q-29 29 -29 70.5t29 70.5l159 160q-237 151 -356 393q121 247 364 399q241 151 536 151q175 0 340 -60l238 239q29 29 71 29t71 -29zM1011 1269q-34 -37 -34 -88q0 -43 31 -81 l180 179q-20 19 -45 26q-38 3 -49 4q-49 -4 -83 -40zM240 941q104 -185 305 -305l128 128q-77 104 -77 236q0 160 109 276q-153 -40 -276 -126q-121 -88 -189 -209zM1562 1154l96 96q154 -130 242 -309q-121 -247 -364 -399q-241 -151 -536 -151q-86 0 -183 18l107 107 q62 -5 76 -5q245 0 450 121t310 309q-68 121 -189 209q-1 0 -4 2t-5 2zM1004 596l400 400q-1 -164 -118 -281q-118 -118 -282 -119z" />
<glyph unicode="&#xf531;" d="M1025 1898q187 0 351 -71t278.5 -192.5t180 -287t65.5 -349.5t-65.5 -349.5t-180 -287t-278.5 -192.5t-351 -71q-236 0 -438.5 107.5t-329.5 291.5l259 152q85 -115 212 -183t272 -68q162 0 300.5 82.5t219 221t80.5 296.5t-80.5 296.5t-219 221t-300.5 82.5 q-144 0 -270.5 -67t-211.5 -182l182 -151l-600 -200v700l189 -158q129 166 322 262t414 96z" />
<glyph unicode="&#xf533;" d="M1400 1413q0 165 -117 282.5t-283 117.5t-283 -117.5t-117 -282.5q0 -166 117 -283t283 -117t283 117t117 283zM324 934q-71 -40 -119.5 -104.5t-68 -138t-10 -153.5t50.5 -150q55 -94 148.5 -147.5t196 -53t202.5 53.5q143 83 186 243t-40 304q-41 70 -105 118.5 t-137.5 68t-153.5 10t-150 -50.5zM1276 241q144 -83 304 -40t243 186q53 100 53.5 202.5t-53 196t-147.5 148.5q-70 41 -150 50.5t-153.5 -10t-137.5 -68t-105 -118.5q-83 -144 -40 -304t186 -243z" />
<glyph unicode="&#xf534;" d="M1000 1800q163 0 311 -63.5t255 -170.5t170.5 -255t63.5 -311t-63.5 -311t-170.5 -255t-255 -170.5t-311 -63.5t-311 63.5t-255 170.5t-170.5 255t-63.5 311t63.5 311t170.5 255t255 170.5t311 63.5zM1113 862l35 646h-296l35 -646h226zM1104 526q37 35 37 96 q0 62 -36 97q-37 35 -106 35t-107 -35q-37 -34 -37 -97q0 -61 38 -96q38 -34 106 -34t105 34z" />
<glyph unicode="&#xf535;" d="M1800 300v1400h-1600v-1400h1600zM1600 1300h-1200v200h1200v-200zM900 900h-500v200h500v-200zM1600 900h-500v200h500v-200zM900 500h-500v200h500v-200zM1600 500h-500v200h500v-200z" />
<glyph unicode="&#xf536;" d="M300 1550v200l38.5 11t102 24t156 30t190 24t213.5 11q163 0 338 -25t268 -50l94 -25v-200l-500 -703v-697q-122 9 -225 59q-46 22 -89.5 57.5t-64.5 59.5l-21 24v497z" />
<glyph unicode="&#xf537;" d="M500 1639v257l899 1l-1 -258q-93 -20 -154.5 -94.5t-61.5 -172.5v-50q1 -98 62 -172t155 -94l-1 -258h-341l-1 -257q0 -77 -34 -259t-72 -182q-39 0 -73.5 182t-34.5 259v256l-342 1l1 258q93 19 154 93.5t61 172.5v50q0 98 -61 172.5t-155 94.5z" />
<glyph unicode="&#xf538;" d="M200 1800h500v-1100h-500v1100zM800 1800h500v-500h-500v500zM1400 1800h400v-1600h-400v1600zM800 1200h500v-500h-500v500zM200 600h1100v-400h-1100v400z" />
<glyph unicode="&#xf540;" d="M1833 1643q3 9 6 24t-4 51t-33 61q-24 23 -54.5 29t-49.5 0l-18 -5q-91 -45 -367.5 -233.5t-399.5 -323.5q-46 -52 -88 -145t-55 -187.5t34 -149.5q52 -46 146.5 -36t192 51.5t140.5 84.5q134 134 323 416t227 363zM140 235q66 43 107 95.5t59.5 101t34 95t45 92.5 t77.5 80q68 50 156.5 44t151.5 -73q51 -55 51.5 -165t-67.5 -181q-76 -70 -181.5 -101.5t-214 -26.5t-219.5 39z" />
<glyph unicode="&#xf541;" d="M1427 1313l-427 373l-427 -373l-73 73l500 438l500 -438zM1400 1158l-405 -343l-395 347v74l400 350l400 -350v-78zM1100 1030v170h-200v-170h200zM927 627l-427 373l-427 -373l-73 73l500 438l500 -438zM1927 627l-427 373l-427 -373l-73 73l500 438l500 -438zM500 900 l400 -350v-350h-800v350zM1500 900l400 -350v-350h-800v350zM600 300v200h-200v-200h200zM1600 300v200h-200v-200h200z" />
<glyph unicode="&#xf542;" d="M728 200q-14 -2 -41 7q-42 14 -60.5 53t-5.5 82q2 7 16.5 51.5t26.5 84t26 87.5t22.5 84t8.5 51q0 38 -44 69t-91 31h-300q-45 0 -72.5 27.5t-27.5 72.5q0 27 50 202t100 336l50 162q16 38 43 69t57 31h914v-900h-214q-29 -29 -182.5 -256t-175.5 -271q-16 -30 -43 -49.5 t-57 -23.5zM1800 800h-200v900h200v-900z" />
<glyph unicode="&#xf543;" d="M1700 1100v-200h-600v-600h-200v600h-600v200h600v600h200v-600h600z" />
<glyph unicode="&#xf545;" d="M1900 1000l-400 -400v300h-400v-400h300l-400 -400l-400 400h300v400h-400v-300l-400 400l400 400v-300h400v400h-300l400 400l400 -400h-300v-400h400v300z" />
<glyph unicode="&#xf546;" d="M1705 1730q95 -95 128.5 -224.5t0 -258.5t-128.5 -224l-705 -707q-92 -93 -216 -127.5t-249 -5t-221 117.5q-2 1 -9 6.5t-10 8.5q-95 95 -128.5 224t0 258t128.5 225l494 495q67 68 162 83t177 -25q53 -26 83 -58q88 -88 88 -212t-88 -212l-493 -495q-29 -29 -70.5 -29 t-70.5 29t-29 70.5t29 70.5l493 495q29 29 29 70.5t-29 70.5q-28 29 -70 29t-70 -29l-494 -495q-67 -68 -82.5 -163t25.5 -177q24 -51 57 -84t84 -57q82 -41 176.5 -26t162.5 83l705 707q87 88 87 212.5t-87 212.5q-83 81 -200 86q-12 -1 -24 0q-37 5 -60 27 q-29 30 -28.5 72.5t30.5 72.5q21 21 56 28q19 3 40 -2q194 -10 327 -143z" />
<glyph unicode="&#xf547;" d="M300 1700h1400q45 0 72.5 -27.5t27.5 -72.5v-1000q0 -45 -27.5 -72.5t-72.5 -27.5h-1400q-45 0 -72.5 27.5t-27.5 72.5v1000q0 45 27.5 72.5t72.5 27.5zM1600 1500h-1200v-800h1200v800zM1300 1400h-800v-400zM1900 300v100h-1800v-100q0 -44 32 -72t78 -28h1580 q46 0 78 28t32 72z" />
<glyph unicode="&#xf548;" d="M1599 699q123 0 210.5 -87.5t87.5 -210.5q0 -124 -87.5 -211t-210.5 -87q-95 0 -171.5 54.5t-108.5 142.5h-474q-54 -91 -145 -145.5t-200 -54.5q-166 0 -283 117t-117 282q0 109 54.5 200t145.5 144v473q-89 31 -144.5 107.5t-55.5 173.5q0 124 88 211.5t212 87.5 t212 -87.5t88 -211.5q0 -97 -55.5 -173.5t-144.5 -107.5v-418q121 0 220 -66l699 719q-19 48 -19 98q0 104 73 177.5t177 73.5t177 -73.5t73 -177.5t-73.5 -178t-176.5 -74q-43 0 -86 16l-711 -731q47 -89 47 -183h418q31 88 108 144t173 56z" />
</font>
</defs>
</svg>
